Статистика раздачи
Размер:  236 MB   |    Зарегистрирован:  1 месяц 4 дня   |    Скачан:  0 раз

Полного источника не было: Никогда

 
   
 
 

MaX ®

Пол:
Не указан
Стаж:
2 месяца 6 дней
Сообщений:
103

Grieg – Symphony in C minor & «In Autumn» (Gothenburg SO, Okko Kamu)
Жанр: Classical
Год издания диска: 1986
Издатель (лейбл): BIS
Номер по каталогу: CD-200
Дата записи: 18.XI.1981 (1—4); 11.XII.1981 (5), Gothenburg
Аудиокодек: FLAC
Тип рипа: tracks
Битрейт аудио: lossless
Продолжительность: 00:49:20
Источник: ladiscotecaclasica
Наличие сканов в содержимом раздачи: да
Треклист:
Edvard Grieg (1843–1907)
01—04. Symphony in C minor, EG 119.
05. «In Autumn», Concert overture, Op. 11.
Исполнители:
The Gothenburg Symphony Orchestra.
Okko Kamu (conductor).

Содержание индексной карты (.CUE) - неоригинальная

REM GENRE Classical
REM DATE 1986
PERFORMER "Okko Kamu"
TITLE "Grieg – Symphony in C minor"
REM COMPOSER "Grieg, Edvard (1843-1897)"
FILE "01 - Symphony in C minor – I. Allegro molto.wav" WAVE
TRACK 01 AUDIO
TITLE "Symphony in C minor – I. Allegro molto"
PERFORMER "Okko Kamu"
INDEX 01 00:00:00
FILE "02 - Symphony in C minor – II. Adagio espressivo.wav" WAVE
TRACK 02 AUDIO
TITLE "Symphony in C minor – II. Adagio espressivo"
PERFORMER "Okko Kamu"
INDEX 01 00:00:00
FILE "03 - Symphony in C minor – III. Intermezzo. Allegro energico.wav" WAVE
TRACK 03 AUDIO
TITLE "Symphony in C minor – III. Intermezzo. Allegro energico"
PERFORMER "Okko Kamu"
INDEX 01 00:00:00
FILE "04 - Symphony in C minor – IV. Finale. Allegro molto vivace.wav" WAVE
TRACK 04 AUDIO
TITLE "Symphony in C minor – IV. Finale. Allegro molto vivace"
PERFORMER "Okko Kamu"
INDEX 01 00:00:00
FILE "05 - In autumn, Op. 11.wav" WAVE
TRACK 05 AUDIO
TITLE "In autumn, Op. 11"
PERFORMER "Okko Kamu"
INDEX 01 00:00:00

Вариант индексной карты (.CUE) с выставленными зазорами

REM GENRE Classical
REM DATE 1986
PERFORMER "Okko Kamu"
TITLE "Grieg – Symphony in C minor"
REM COMPOSER "Grieg, Edvard (1843-1897)"
FILE "01 - Symphony in C minor – I. Allegro molto.wav" WAVE
TRACK 01 AUDIO
TITLE "Symphony in C minor – I. Allegro molto"
PERFORMER "Okko Kamu"
INDEX 00 00:00:00
INDEX 01 00:06:04
TRACK 02 AUDIO
TITLE "Symphony in C minor – II. Adagio espressivo"
PERFORMER "Okko Kamu"
INDEX 00 14:10:28
FILE "02 - Symphony in C minor – II. Adagio espressivo.wav" WAVE
INDEX 01 00:00:00
TRACK 03 AUDIO
TITLE "Symphony in C minor – III. Intermezzo. Allegro energico"
PERFORMER "Okko Kamu"
INDEX 00 08:35:28
FILE "03 - Symphony in C minor – III. Intermezzo. Allegro energico.wav" WAVE
INDEX 01 00:00:00
TRACK 04 AUDIO
TITLE "Symphony in C minor – IV. Finale. Allegro molto vivace"
PERFORMER "Okko Kamu"
INDEX 00 05:11:00
FILE "04 - Symphony in C minor – IV. Finale. Allegro molto vivace.wav" WAVE
INDEX 01 00:00:00
TRACK 05 AUDIO
TITLE "In autumn, Op. 11"
PERFORMER "Okko Kamu"
INDEX 00 08:39:61
FILE "05 - In autumn, Op. 11.wav" WAVE
INDEX 01 00:00:00
INDEX 02 11:27:00

Лог проверки качества

AUDIOCHECKER v2.0 beta (build 457) - by Dester - opdester@freemail.hu
~~~~~~~~~~~~~~~~~~~~~~~~~~~~~~~~~~
-=== DO NOT EDIT THIS FILE! ===-
Path: ...\Grieg – Symphony in C minor (Okko Kamu)
1 -=- 01 - Symphony in C minor – I. Allegro molto.flac -=- CDDA (86%)
2 -=- 02 - Symphony in C minor – II. Adagio espressivo.flac -=- CDDA (76%)
3 -=- 03 - Symphony in C minor – III. Intermezzo. Allegro energico.flac -=- CDDA (100%)
4 -=- 04 - Symphony in C minor – IV. Finale. Allegro molto vivace.flac -=- CDDA (100%)
5 -=- 05 - In autumn, Op. 11.flac -=- CDDA (100%)
Summary 92,40% CDDA
88792900
[cybertorrent.ru].t41572.torrent 
Торрент: Зарегистрирован [ 2018-03-19 15:15 ] · 44D5DE03CB6A15F0443ECFE31DC92833B654712F

Скачать .torrent

Скачать

20 KB

Статус: проверено
Скачан: 0 раз
Размер: 236 MB
Профиль [ЛС]
Показать сообщения:    

Текущее время: 24-Апр 14:13

Часовой пояс: UTC ± 0



Вы не можете начинать темы
Вы не можете отвечать на сообщения
Вы не можете редактировать свои сообщения
Вы не можете удалять свои сообщения
Вы не можете голосовать в опросах
Вы не можете прикреплять файлы к сообщениям
Вы можете скачивать файлы