Статистика раздачи
Размер:  1,34 GB   |    Зарегистрирован:  1 месяц 4 дня   |    Скачан:  0 раз

Полного источника не было: Никогда

 
   
 
 

Awrora ®

Пол:
Не указан
Стаж:
2 месяца 9 дней
Сообщений:
624

Осёл / Kenjac
Страна: Хорватия, Босния и Герцеговина, Сербия, Великобритания
Жанр: драма
Год выпуска: 2009
Продолжительность: 01:27:24
Перевод: Субтитры yugo45
Субтитры: русские
Оригинальная аудиодорожка: хорватский
Режиссер: Антонио Нуич / Antonio Nuić / Antonio Nuiс
В ролях: Небойша Глоговац, Наташа Яньич, Эмир Хаджихафизбегович, Любо Капор, Ася Йованович, Тонко Лонза, Роко Роглич, Трпимир Юркич, Гордана Бобан
Описание: Боро, которому скоро исполняется сорок, с семьёй ненадолго приезжает из Загреба в свою родную деревню в Герцеговине спустя много лет. И жена и ребёнок не очень-то хотят ехать в деревню, и лучше поехали бы в Сплит, на море, где живут другие дедушка с бабушкой. Но Боро хочет увидеть своего брата, который недавно приехал из Сараево... И в эти пять дней произойдут события, которые разворошат застарелые семейные конфликты и вдохнут жизнь в опостылевшие отношения.

Доп. информация:

- Этот релиз поcвящается памяти Небойши Глоговаца, великого актёра и прекрасного человека.
- Фильм был номинирован на "Оскар" от Хорватии в 2010 году.
- Герцеговинская деревня Дриновцы, в которой происходит действие фильма, на самом деле родная деревня отца режиссёра Антонио Нуича.
- Слово „kenjac“, по которому фильм получил название - это "осёл" на местном герцеговинском диалекте.
- Действие фильма по времени происходит в начале августа 1995 года, во время военной операции "Буря".
Сэмпл: http://multi-up.com/1189370
Качество видео: WEBRip-AVC
Формат видео: MKV
Видео: AVC, 1 280*720, 16:9, 30.000 FPS, 1 997 kb/s
Аудио: AAC, 44.1 kHz, 192 kb/s, 2 channels
Формат субтитров: softsub (SRT)

MediaInfo

General
Unique ID : 58105822475036667262298037062611191513 (0x2BB6C63B75D65023EF6CA6DA160F46D9)
Complete name : /home/evgeny/Загрузки/Kenjac.720p.HDTV[2009].mkv
Format : Matroska
Format version : Version 4 / Version 2
File size : 1.34 GiB
Duration : 1 h 27 min
Overall bit rate : 2 191 kb/s
Encoded date : UTC 2018-03-04 06:44:13
Writing application : mkvmerge v7.4.0 ('Circles') 64bit built on Sep 29 2016 19:14:16
Writing library : libebml v1.3.3 + libmatroska v1.4.1
Video
ID : 1
Format : AVC
Format/Info : Advanced Video Codec
Format profile : Main@L4.1
Format settings : CABAC / 2 Ref Frames
Format settings, CABAC : Yes
Format settings, ReFrames : 2 frames
Muxing mode : Container profile=Baseline@3.0
Codec ID : V_MPEG4/ISO/AVC
Duration : 1 h 27 min
Bit rate : 1 997 kb/s
Width : 1 280 pixels
Height : 720 pixels
Display aspect ratio : 16:9
Frame rate mode : Constant
Frame rate : 30.000 FPS
Color space : YUV
Chroma subsampling : 4:2:0
Bit depth : 8 bits
Scan type : Progressive
Bits/(Pixel*Frame) : 0.072
Stream size : 1.22 GiB (91%)
Default : Yes
Forced : No
Audio
ID : 2
Format : AAC
Format/Info : Advanced Audio Codec
Format profile : LC
Codec ID : A_AAC-2
Duration : 1 h 27 min
Bit rate : 192 kb/s
Channel(s) : 2 channels
Channel positions : Front: L R
Sampling rate : 44.1 kHz
Frame rate : 43.066 FPS (1024 SPF)
Compression mode : Lossy
Stream size : 120 MiB (9%)
Language : Croatian
Default : Yes
Forced : No
Text
ID : 3
Format : UTF-8
Codec ID : S_TEXT/UTF8
Codec ID/Info : UTF-8 Plain Text
Duration : 1 h 23 min
Bit rate : 60 b/s
Count of elements : 664
Stream size : 36.8 KiB (0%)
Language : Russian
Default : Yes
Forced : No

Скриншот c названием фильма

Скриншоты

Фрагмент субтитров

3
00:00:47,320 --> 00:00:50,517
Папа!
- Папа, тебя сын зовёт.
4
00:00:52,560 --> 00:00:55,632
Что, сын?
- Сколько ещё до Дриновцев?
5
00:00:56,400 --> 00:00:59,631
Лука, мы только что выехали,
не начинай, пожалуйста.
6
00:01:00,640 --> 00:01:03,154
Милый, у тебя есть карта.
Посмотри на карте.
7
00:01:06,120 --> 00:01:08,076
Я не могу найти Дриновцы.
8
00:01:16,400 --> 00:01:19,392
Прошу тебя, помедленнее.
- Хорошо, хорошо.
9
00:01:26,440 --> 00:01:28,635
Давайте поедем в Сплит
к дедушке и бабушке!
10
00:01:28,840 --> 00:01:31,479
Поедем в другой раз, мой хороший.
Дядя Петар приехал в Дриновцы.
11
00:01:31,680 --> 00:01:33,033
Мы едем его повидать.
12
00:01:34,640 --> 00:01:36,119
Кто это?
13
00:01:38,960 --> 00:01:40,879
Папин брат.
14
00:01:49,720 --> 00:01:50,914
Папа?
15
00:01:52,720 --> 00:01:53,914
Что, сын?
16
00:01:54,160 --> 00:01:57,994
А в Дриновцах есть море?
- Нет.
17
00:02:00,400 --> 00:02:01,628
Но есть озеро.
18
00:02:03,840 --> 00:02:07,549
ОСЁЛ
19
00:03:17,360 --> 00:03:19,430
Пашко, как дела?
- Так себе...
20
00:03:20,280 --> 00:03:22,077
А вот и Перо!
- Привет.
21
00:03:25,720 --> 00:03:28,996
Когда ты приехал?
- Позавчера.
22
00:03:29,920 --> 00:03:31,638
Посмотрите-ка!
- Привет, Звоне!
23
00:03:32,800 --> 00:03:35,473
Давайте, остановитесь,
выпьем да поболтаем.
24
00:03:36,040 --> 00:03:39,112
Мы везём детей на море,
и они не могут ждать.
25
00:03:39,360 --> 00:03:40,998
Море не убежит.
[cybertorrent.ru].t41573.torrent 
Торрент: Зарегистрирован [ 2018-03-19 15:15 ] · 801C178852F8589E254A4E65B41189AB3517A8A2

Скачать .torrent

Скачать

27 KB

Статус: проверено
Скачан: 0 раз
Размер: 1,34 GB
Профиль [ЛС]
Показать сообщения:    

Текущее время: 24-Апр 14:22

Часовой пояс: UTC ± 0



Вы не можете начинать темы
Вы не можете отвечать на сообщения
Вы не можете редактировать свои сообщения
Вы не можете удалять свои сообщения
Вы не можете голосовать в опросах
Вы не можете прикреплять файлы к сообщениям
Вы можете скачивать файлы