Статистика раздачи
Размер:  414 MB   |    Зарегистрирован:  1 месяц 4 дня   |    Скачан:  0 раз

Полного источника не было: Никогда

 
   
 
 

dash ®

Пол:
Не указан
Стаж:
2 месяца 6 дней
Сообщений:
121

Lanner, Strauss - Musik des Biedermeier I (Biedermeier Ensemble Wien)
Жанр: Classical chamber
Страна-производитель диска: Made in Japan
Год издания диска: 1988
Издатель (лейбл): Denon/Nippon Columbia, Japan
Номер по каталогу: CO-72587
Дата записи: 1988
Аудиокодек: FLAC
Тип рипа: image+.cue
Битрейт аудио: lossless
Продолжительность: 74'05
Источник: релизер
сайт-источник/ник/другое: Fasch, подарок
Наличие сканов в содержимом раздачи: да
Треклист:
01. Lanner Joseph - Die Romantiker, Walzer [0:08:44.70]
02. Strauss Johann (Père) - Eisele u. Beisele Sprünge, Polka [0:02:16.15]
03. Lanner Joseph - Neue Wiener Ländler [0:04:14.55]
04. Strauss Johann (Père) - Cachucha-Galopp [0:02:08.25]
05. Strauss Johann (Père) - Kettenbrucken-Walser [0:05:03.23]
06. Lanner Joseph - Hansjörgel-Polka [0:03:06.05]
07. Strauss Johann (Père) - Wiener Genütz-Walzer [0:06:30.10]
08. Strauss Johann (Fils) - Scherz-Polka [0:03:18.50]
09. Lanner Joseph: Steyrische Tänze [0:06:02.10]
10. Strauss Johann (Père) - Alpenkönig-Galopp [0:01:26.40]
11. Strauss Johann (Père) - Champagner-Galopp [0:02:04.52]
12. Lanner Joseph - Die Werber, Walzen [0:08:45.40]
13. Strauss Johann (Père) - Gitana-Galopp [0:02:35.28]
14. Lanner Joseph - Dornbacher Ländler [0:07:36.22]
15. Strauss Josef - Tag und Nacht, Polka schnell [0:02:38.05]
16. Strauss Johann (Fils) - Rosen aus dem Südem, Walzer [0:09:07.25]

Исполнители

Joseph Lanner (1801-1843)
Johann Strauss, Vater (1804-1849)
Johann Strauss, Sohn (1825-1899)
Josef Strauss (1827-1870)
Musik des Biedermeier I
Biedermeier Ensemble Wien

Лог создания рипа

Exact Audio Copy V1.3 from 2. September 2016
EAC extraction logfile from 3. March 2018, 10:33
Biedermeier Ensemble Wien / Musik des Biedermeier
Used drive : HL-DT-STDVDRAM GSA-4081B Adapter: 1 ID: 1
Read mode : Secure
Utilize accurate stream : Yes
Defeat audio cache : Yes
Make use of C2 pointers : No
Read offset correction : 667
Overread into Lead-In and Lead-Out : No
Fill up missing offset samples with silence : Yes
Delete leading and trailing silent blocks : No
Null samples used in CRC calculations : Yes
Used interface : Native Win32 interface for Win NT & 2000
Used output format : User Defined Encoder
Selected bitrate : 768 kBit/s
Quality : High
Add ID3 tag : No
Command line compressor : C:\Program Files\Exact Audio Copy\FLAC\FLAC.EXE
Additional command line options : -6 -V -T "ARTIST=%artist%" -T "TITLE=%title%" -T "ALBUM=%albumtitle%" -T "DATE=%year%" -T "TRACKNUMBER=%tracknr%" -T "GENRE=%genre%" -T "COMMENT=%comment%" -T "BAND=%albuminterpret%" -T "ALBUMARTIST=%albuminterpret%" -T "COMPOSER=%composer%" %haslyrics%--tag-from-file=LYRICS="%lyricsfile%"%haslyrics% -T "DISCNUMBER=%cdnumber%" -T "TOTALDISCS=%totalcds%" -T "TOTALTRACKS=%numtracks%" %hascover%--picture="%coverfile%"%hascover% %source% -o %dest%
TOC of the extracted CD
Track | Start | Length | Start sector | End sector
---------------------------------------------------------
1 | 0:00.00 | 8:44.70 | 0 | 39369
2 | 8:44.70 | 2:16.15 | 39370 | 49584
3 | 11:01.10 | 4:14.55 | 49585 | 68689
4 | 15:15.65 | 2:08.25 | 68690 | 78314
5 | 17:24.15 | 5:03.23 | 78315 | 101062
6 | 22:27.38 | 3:06.05 | 101063 | 115017
7 | 25:33.43 | 6:30.10 | 115018 | 144277
8 | 32:03.53 | 3:18.50 | 144278 | 159177
9 | 35:22.28 | 6:02.10 | 159178 | 186337
10 | 41:24.38 | 1:26.40 | 186338 | 192827
11 | 42:51.03 | 2:04.52 | 192828 | 202179
12 | 44:55.55 | 8:45.40 | 202180 | 241594
13 | 53:41.20 | 2:35.28 | 241595 | 253247
14 | 56:16.48 | 7:36.22 | 253248 | 287469
15 | 63:52.70 | 2:38.05 | 287470 | 299324
16 | 66:31.00 | 9:07.25 | 299325 | 340374
Range status and errors
Selected range
Filename C:\Users\Miguel Angel\Downloads\Biedermeier Ensemble Wien I\Biedermeier Ensemble Wien - Musik des Biedermeier I.wav
Peak level 95.0 %
Extraction speed 4.5 X
Range quality 99.9 %
Test CRC AE1C366F
Copy CRC AE1C366F
Copy OK
No errors occurred
AccurateRip summary
Track 1 accurately ripped (confidence 2) [3EEF45D3] (AR v1)
Track 2 accurately ripped (confidence 2) [C9D7C438] (AR v1)
Track 3 accurately ripped (confidence 2) [3C5AA890] (AR v1)
Track 4 accurately ripped (confidence 2) [A8573BAC] (AR v1)
Track 5 accurately ripped (confidence 2) [73BC41B3] (AR v1)
Track 6 accurately ripped (confidence 2) [393B3F42] (AR v1)
Track 7 accurately ripped (confidence 2) [79EC4BF3] (AR v1)
Track 8 accurately ripped (confidence 2) [E6450CAA] (AR v1)
Track 9 accurately ripped (confidence 2) [70333231] (AR v1)
Track 10 accurately ripped (confidence 2) [B2C0E435] (AR v1)
Track 11 accurately ripped (confidence 2) [4F00AE49] (AR v1)
Track 12 accurately ripped (confidence 2) [FC70DE17] (AR v1)
Track 13 accurately ripped (confidence 2) [911578A5] (AR v1)
Track 14 accurately ripped (confidence 2) [0F3AF0F5] (AR v1)
Track 15 accurately ripped (confidence 2) [DC187CA1] (AR v1)
Track 16 accurately ripped (confidence 2) [13B56799] (AR v1)
All tracks accurately ripped
End of status report
---- CUETools DB Plugin V2.1.6
[CTDB TOCID: P70PuhlcE76MK0WmKzVpQkrquAc-] found
Submit result: already submitted
Track | CTDB Status
1 | (5/5) Accurately ripped
2 | (5/5) Accurately ripped
3 | (5/5) Accurately ripped
4 | (5/5) Accurately ripped
5 | (5/5) Accurately ripped
6 | (5/5) Accurately ripped
7 | (5/5) Accurately ripped
8 | (5/5) Accurately ripped
9 | (5/5) Accurately ripped
10 | (5/5) Accurately ripped
11 | (5/5) Accurately ripped
12 | (5/5) Accurately ripped
13 | (4/5) Accurately ripped, or (1/5) differs in 2 samples @01:54:43
14 | (4/5) Accurately ripped, or (1/5) differs in 2 samples @06:04:31
15 | (4/5) Accurately ripped, or (1/5) differs in 2 samples @02:24:15
16 | (4/5) Accurately ripped, or (1/5) differs in 2 samples @02:52:13
==== Log checksum B1FF45419CABD6E85C73D8D887489EF0E8BAD08ACE45F39EF72FE838258A8AEE ====

Содержание индексной карты (.CUE)

REM GENRE Classical
REM DATE 1988
REM DISCID F911BA10
REM COMMENT "ExactAudioCopy v1.3"
PERFORMER "Biedermeier Ensemble Wien"
TITLE "Musik des Biedermeier"
REM COMPOSER "Joseph Lanner (1801-1843), Johann Strauss, Vater (1804-1849), Johann Strauss, Sohn (1825-1899), Josef Strauss (1827-1870)"
FILE "Biedermeier Ensemble Wien - Musik des Biedermeier I.flac" WAVE
TRACK 01 AUDIO
TITLE "Joseph Lanner: Die Romantiker, Walzer, Op.167"
PERFORMER "Biedermeier Ensemble Wien"
REM COMPOSER "Joseph Lanner (1801-1843)"
INDEX 01 00:00:00
TRACK 02 AUDIO
TITLE "Johann Strauss, Vater: Eisele u. Beisele Sprünge, Polka, Op.202"
PERFORMER "Biedermeier Ensemble Wien"
REM COMPOSER "Johann Strauss, Vater (1804-1849)"
INDEX 01 08:44:70
TRACK 03 AUDIO
TITLE "Joseph Lanner: Neue Wiener Ländler, Op.1"
PERFORMER "Biedermeier Ensemble Wien"
REM COMPOSER "Joseph Lanner (1801-1843)"
INDEX 00 10:56:38
INDEX 01 11:01:10
TRACK 04 AUDIO
TITLE "Johann Strauss, Vater: Cachucha-Galopp, Op.97"
PERFORMER "Biedermeier Ensemble Wien"
REM COMPOSER "Johann Strauss, Vater (1804-1849)"
INDEX 00 15:11:30
INDEX 01 15:15:65
TRACK 05 AUDIO
TITLE "Johann Strauss, Vater: Kettenbrucken-Walser, Op.4"
PERFORMER "Biedermeier Ensemble Wien"
REM COMPOSER "Johann Strauss, Vater (1804-1849)"
INDEX 00 17:19:68
INDEX 01 17:24:15
TRACK 06 AUDIO
TITLE "Joseph Lanner: Hansjörgel-Polka, Op.194"
PERFORMER "Biedermeier Ensemble Wien"
REM COMPOSER "Joseph Lanner (1801-1843)"
INDEX 00 22:23:15
INDEX 01 22:27:38
TRACK 07 AUDIO
TITLE "Johann Strauss, Vater: Wiener Genütz-Walzer, Op.116"
PERFORMER "Biedermeier Ensemble Wien"
REM COMPOSER "Johann Strauss, Vater (1804-1849)"
INDEX 00 25:29:18
INDEX 01 25:33:43
TRACK 08 AUDIO
TITLE "Strauss Johann, Sohn: Scherz-Polka, Op.72"
PERFORMER "Biedermeier Ensemble Wien"
REM COMPOSER "Johann Strauss, Sohn (1825-1899)"
INDEX 00 31:59:33
INDEX 01 32:03:53
TRACK 09 AUDIO
TITLE "Joseph Lanner: Steyrische, Tänze, Op.165"
PERFORMER "Biedermeier Ensemble Wien"
REM COMPOSER "Joseph Lanner (1801-1843)"
INDEX 00 35:17:60
INDEX 01 35:22:28
TRACK 10 AUDIO
TITLE "Johann Strauss, Vater: Alpenkönig-Galopp, Op.7"
PERFORMER "Biedermeier Ensemble Wien"
REM COMPOSER "Johann Strauss, Vater (1804-1849)"
INDEX 00 41:20:15
INDEX 01 41:24:38
TRACK 11 AUDIO
TITLE "Johann Strauss, Vater: Champagner-Galopp, Op.8"
PERFORMER "Biedermeier Ensemble Wien"
REM COMPOSER "Johann Strauss, Vater (1804-1849)"
INDEX 00 42:46:60
INDEX 01 42:51:03
TRACK 12 AUDIO
TITLE "Joseph Lanner: Die Werber, Walzen, Op.103"
PERFORMER "Biedermeier Ensemble Wien"
REM COMPOSER "Joseph Lanner (1801-1843)"
INDEX 00 44:51:33
INDEX 01 44:55:55
TRACK 13 AUDIO
TITLE "Johann Strauss, Vater: Gitana-Galopp, Op.108"
PERFORMER "Biedermeier Ensemble Wien"
REM COMPOSER "Johann Strauss, Vater (1804-1849)"
INDEX 00 53:36:65
INDEX 01 53:41:20
TRACK 14 AUDIO
TITLE "Joseph Lanner: Dornbacher Ländler, Op. 9"
PERFORMER "Biedermeier Ensemble Wien"
REM COMPOSER "Joseph Lanner (1801-1843)"
INDEX 00 56:12:33
INDEX 01 56:16:48
TRACK 15 AUDIO
TITLE "Josef Strauss: Tag und Nacht, Polka schnell, Op.93"
PERFORMER "Biedermeier Ensemble Wien"
REM COMPOSER "Josef Strauss (1827-1870)"
INDEX 00 63:48:64
INDEX 01 63:52:70
TRACK 16 AUDIO
TITLE "Strauss Johann, Sohn: Rosen aus dem Südem, Walzer, Op.388"
PERFORMER "Biedermeier Ensemble Wien"
REM COMPOSER "Johann Strauss, Sohn (1825-1899)"
INDEX 00 66:26:35
INDEX 01 66:31:00
[cybertorrent.ru].t41576.torrent 
Торрент: Зарегистрирован [ 2018-03-19 15:15 ] · 8F0E1CB2B5C5E254FE50B808696194CBA32539BF

Скачать .torrent

Скачать

18 KB

Статус: проверено
Скачан: 0 раз
Размер: 414 MB
Профиль [ЛС]
Показать сообщения:    

Текущее время: 24-Апр 14:08

Часовой пояс: UTC ± 0



Вы не можете начинать темы
Вы не можете отвечать на сообщения
Вы не можете редактировать свои сообщения
Вы не можете удалять свои сообщения
Вы не можете голосовать в опросах
Вы не можете прикреплять файлы к сообщениям
Вы можете скачивать файлы