Статистика раздачи
Размер:  399 MB   |    Зарегистрирован:  1 месяц 5 дней   |    Скачан:  0 раз

Полного источника не было: Никогда

 
   
 
 

dash ®

Пол:
Не указан
Стаж:
2 месяца 6 дней
Сообщений:
121

Lanner, Labitzki, Pamer, Strauss (all family) - Abendsterne. Musik des Biedermeier II (Biedermeier Ensemble Wien)
Жанр: Classical chamber
Страна-производитель диска: Made in Japan
Год издания диска: 1990
Издатель (лейбл): Denon/Nippon Columbia, Japan
Номер по каталогу: CO-77052
Дата записи: 1991
Аудиокодек: FLAC
Тип рипа: image+.cue
Битрейт аудио: lossless
Продолжительность: 76'57
Источник: релизер
Наличие сканов в содержимом раздачи: да
Треклист:
01. Marien-Walzer, Op.143 [0:09:10.70] Joseph Lanner
02. Tyroler-Ländler, Op 6 [0:06:05.18] Joseph Lanner
03. Ungarisher-Galopp, Op 97 [0:02:34.27] Joseph Lanner
04. Mein Lebenslauf is Lieb' und Lust; Walzer, Op 263 [0:07:53.00] Josef Strauss
05. Annen-Polka, Op 117 [0:04:09.18] Johann Strauss, Sohn
06. Frauenherz; Polka mazur, Op 166 [0:05:16.20] Josef Strauss
07. Solo-Ländler [0:04:27.52] Michael Pamer
08. Carrière-Polka; Polka schnell, Op 200 [0:02:16.00] Josef Strauss
09. Willkommen zum Sperl; Landler, Op 28 [0:06:10.03] Joseph Lanner
10. Fanny-Polka, Op 222 No 2 [0:04:02.32] Joseph Labitzky
11. Chinerser-Galopp, Op 20 [0:01:40.63] Johann Strauss, Vater
12. Abendsterne, Walzer, Op 180 [0:07:50.17] Joseph Lanner
13. Brennende Liebe, Polka mazur, Op 129 [0:05:21.63] Josef Strauss
14. Furioso-Galopp, Op 24 [0:02:46.45] Joseph Labitzky
15. Die Schönbrunner; Walzer, Op 200 [0:08:23.60] Joseph Lanner

Исполнители

Joseph Lanner (1801-1843)
Joseph Labitzky (1802-1881)
Johann Strauss, Vater (1804-1849)
Johann Strauss, Sohn (1825-1899)
Josef Strauss (1827-1870)
Michael Pamer (1782-1827)
Abendsterne. Musik des Biedermeier II
Biedermeier Ensemble Wien
Audio CD (14 May 1991)

Лог создания рипа

Exact Audio Copy V1.3 from 2. September 2016
EAC extraction logfile from 6. January 2018, 12:48
Abendsterne/Musik Des Biedermeier II / Biedermeier Ensemble Wien
Used drive : HL-DT-STDVDRAM GSA-4081B Adapter: 1 ID: 1
Read mode : Secure
Utilize accurate stream : Yes
Defeat audio cache : Yes
Make use of C2 pointers : No
Read offset correction : 667
Overread into Lead-In and Lead-Out : No
Fill up missing offset samples with silence : Yes
Delete leading and trailing silent blocks : No
Null samples used in CRC calculations : Yes
Used interface : Native Win32 interface for Win NT & 2000
Used output format : User Defined Encoder
Selected bitrate : 768 kBit/s
Quality : High
Add ID3 tag : No
Command line compressor : C:\Program Files\Exact Audio Copy\FLAC\FLAC.EXE
Additional command line options : -6 -V -T "ARTIST=%artist%" -T "TITLE=%title%" -T "ALBUM=%albumtitle%" -T "DATE=%year%" -T "TRACKNUMBER=%tracknr%" -T "GENRE=%genre%" -T "COMMENT=%comment%" -T "BAND=%albuminterpret%" -T "ALBUMARTIST=%albuminterpret%" -T "COMPOSER=%composer%" %haslyrics%--tag-from-file=LYRICS="%lyricsfile%"%haslyrics% -T "DISCNUMBER=%cdnumber%" -T "TOTALDISCS=%totalcds%" -T "TOTALTRACKS=%numtracks%" %hascover%--picture="%coverfile%"%hascover% %source% -o %dest%
TOC of the extracted CD
Track | Start | Length | Start sector | End sector
---------------------------------------------------------
1 | 0:00.00 | 9:10.70 | 0 | 41319
2 | 9:10.70 | 6:05.18 | 41320 | 68712
3 | 15:16.13 | 2:34.27 | 68713 | 80289
4 | 17:50.40 | 7:53.00 | 80290 | 115764
5 | 25:43.40 | 4:09.18 | 115765 | 134457
6 | 29:52.58 | 5:16.20 | 134458 | 158177
7 | 35:09.03 | 4:27.52 | 158178 | 178254
8 | 39:36.55 | 2:16.00 | 178255 | 188454
9 | 41:52.55 | 6:10.03 | 188455 | 216207
10 | 48:02.58 | 4:02.32 | 216208 | 234389
11 | 52:05.15 | 1:40.63 | 234390 | 241952
12 | 53:46.03 | 7:50.17 | 241953 | 277219
13 | 61:36.20 | 5:21.63 | 277220 | 301357
14 | 66:58.08 | 2:46.45 | 301358 | 313852
15 | 69:44.53 | 8:23.60 | 313853 | 351637
Range status and errors
Selected range
Filename C:\Users\Miguel Angel\Downloads\Abendsterne,Musik Des Biedermeier II\Abendsterne,Musik Des Biedermeier II - Biedermeier Ensemble Wien.wav
Peak level 97.3 %
Extraction speed 4.7 X
Range quality 99.9 %
Test CRC 507157B4
Copy CRC 507157B4
Copy OK
No errors occurred
AccurateRip summary
Track 1 accurately ripped (confidence 2) [4086F8AC] (AR v2)
Track 2 accurately ripped (confidence 2) [84B4FE93] (AR v2)
Track 3 accurately ripped (confidence 2) [19194588] (AR v2)
Track 4 accurately ripped (confidence 2) [6DAA90A3] (AR v2)
Track 5 accurately ripped (confidence 2) [5858239F] (AR v2)
Track 6 accurately ripped (confidence 2) [A400B14A] (AR v2)
Track 7 accurately ripped (confidence 2) [38E56227] (AR v2)
Track 8 accurately ripped (confidence 2) [1D82AADF] (AR v2)
Track 9 accurately ripped (confidence 2) [91862985] (AR v2)
Track 10 accurately ripped (confidence 2) [943DFC6A] (AR v2)
Track 11 accurately ripped (confidence 2) [E6532DD2] (AR v2)
Track 12 accurately ripped (confidence 2) [C54E5637] (AR v2)
Track 13 accurately ripped (confidence 2) [042483A9] (AR v2)
Track 14 accurately ripped (confidence 2) [BDA51281] (AR v2)
Track 15 accurately ripped (confidence 2) [8626E898] (AR v2)
All tracks accurately ripped
End of status report
---- CUETools DB Plugin V2.1.6
[CTDB TOCID: DGK..VpUaMNPLABq8H4rYb1OCNg-] found
Submit result: DGK..VpUaMNPLABq8H4rYb1OCNg- has been confirmed
Track | CTDB Status
1 | (3/5) Accurately ripped
2 | (3/5) Accurately ripped
3 | (5/5) Accurately ripped
4 | (5/5) Accurately ripped
5 | (5/5) Accurately ripped
6 | (5/5) Accurately ripped
7 | (5/5) Accurately ripped
8 | (5/5) Accurately ripped
9 | (5/5) Accurately ripped
10 | (5/5) Accurately ripped
11 | (5/5) Accurately ripped
12 | (5/5) Accurately ripped
13 | (5/5) Accurately ripped
14 | (5/5) Accurately ripped
15 | (5/5) Accurately ripped
==== Log checksum 1E07B95374B0F68A520C9FD4107077146615C2D45F491E1D5C602824CB46666B ====

Содержание индексной карты (.CUE)

REM GENRE Classical
REM DATE 1990
REM DISCID D812500F
REM COMMENT "ExactAudioCOp.y v1.3"
PERFORMER "Biedermeier Ensemble Wien"
TITLE "Abendsterne. Musik Des Biedermeier II"
REM COMPOSER "Joseph Lanner (1801-1843), Joseph Labitzky (1802-1881), Johann Strauss, Vater (1804-1849), Johann Strauss, Sohn (1825-1899), Josef Strauss (1827-1870), Michael Pamer (1782-1827)"
FILE "Abendsterne, Musik Des Biedermeier II - Biedermeier Ensemble Wien.flac" WAVE
TRACK 01 AUDIO
TITLE "Marien-Walzer, Op.143"
PERFORMER "Biedermeier Ensemble Wien"
REM COMPOSER "Joseph Lanner (1801-1843)"
INDEX 01 00:00:00
TRACK 02 AUDIO
TITLE "Tyroler-Ländler, Op.6"
PERFORMER "Biedermeier Ensemble Wien"
REM COMPOSER "Joseph Lanner (1801-1843)"
INDEX 01 09:10:70
TRACK 03 AUDIO
TITLE "Ungarisher-Galop, Op.97 No.3"
PERFORMER "Biedermeier Ensemble Wien"
REM COMPOSER "Joseph Lanner (1801-1843)"
INDEX 00 15:13:08
INDEX 01 15:16:13
TRACK 04 AUDIO
TITLE "Mein Lebenslauf is Lieb' und Lust; Walzer, Op.263"
PERFORMER "Biedermeier Ensemble Wien"
REM COMPOSER "Josef Strauss (1827-1870)"
INDEX 00 17:47:48
INDEX 01 17:50:40
TRACK 05 AUDIO
TITLE "Annen-Polka, Op.117"
PERFORMER "Biedermeier Ensemble Wien"
REM COMPOSER "Johann Strauss, Sohn (1825-1899)"
INDEX 00 25:40:30
INDEX 01 25:43:40
TRACK 06 AUDIO
TITLE "Frauenherz; Polka mazur, Op.166"
PERFORMER "Biedermeier Ensemble Wien"
REM COMPOSER "Josef Strauss (1827-1870)"
INDEX 00 29:49:68
INDEX 01 29:52:58
TRACK 07 AUDIO
TITLE "Solo-Ländler"
PERFORMER "Biedermeier Ensemble Wien"
REM COMPOSER "Michael Pamer (1782-1827)"
INDEX 00 35:06:03
INDEX 01 35:09:03
TRACK 08 AUDIO
TITLE "Carrière-Polka; Polka schnell, Op.200"
PERFORMER "Biedermeier Ensemble Wien"
REM COMPOSER "Josef Strauss (1827-1870)"
INDEX 00 39:33:65
INDEX 01 39:36:55
TRACK 09 AUDIO
TITLE "Willkommen zum Sperl; Landler, Op.28"
PERFORMER "Biedermeier Ensemble Wien"
REM COMPOSER "Joseph Lanner (1801-1843)"
INDEX 00 41:49:70
INDEX 01 41:52:55
TRACK 10 AUDIO
TITLE "Fanny-Polka, Op.222 No.2"
PERFORMER "Biedermeier Ensemble Wien"
REM COMPOSER "Joseph Labitzky (1802-1881)"
INDEX 00 48:00:10
INDEX 01 48:02:58
TRACK 11 AUDIO
TITLE "Chinerser-Galop.p, Op.20"
PERFORMER "Biedermeier Ensemble Wien"
REM COMPOSER "Johann Strauss, Vater (1804-1849)"
INDEX 00 52:02:50
INDEX 01 52:05:15
TRACK 12 AUDIO
TITLE "Abendsterne, Walzer, Op.180"
PERFORMER "Biedermeier Ensemble Wien"
REM COMPOSER "Joseph Lanner (1801-1843)"
INDEX 00 53:43:13
INDEX 01 53:46:03
TRACK 13 AUDIO
TITLE "Brennende Liebe, Polka mazur, Op.129"
PERFORMER "Biedermeier Ensemble Wien"
REM COMPOSER "Josef Strauss (1827-1870)"
INDEX 00 61:33:23
INDEX 01 61:36:20
TRACK 14 AUDIO
TITLE "Furioso-Galop, Op.24"
PERFORMER "Biedermeier Ensemble Wien"
REM COMPOSER "Joseph Labitzky (1802-1881)"
INDEX 00 66:55:73
INDEX 01 66:58:08
TRACK 15 AUDIO
TITLE "Die Schönbrunner; Walzer, Op.200"
PERFORMER "Biedermeier Ensemble Wien"
REM COMPOSER "Joseph Lanner (1801-1843)"
INDEX 00 69:42:18
INDEX 01 69:44:53
[cybertorrent.ru].t41577.torrent 
Торрент: Зарегистрирован [ 2018-03-19 15:15 ] · 3E6F0DBC003588F6DEEC85477C01FAE3EE2C28B9

Скачать .torrent

Скачать

17 KB

Статус: проверено
Скачан: 0 раз
Размер: 399 MB
Профиль [ЛС]
Показать сообщения:    

Текущее время: 24-Апр 18:22

Часовой пояс: UTC ± 0



Вы не можете начинать темы
Вы не можете отвечать на сообщения
Вы не можете редактировать свои сообщения
Вы не можете удалять свои сообщения
Вы не можете голосовать в опросах
Вы не можете прикреплять файлы к сообщениям
Вы можете скачивать файлы