Статистика раздачи
Размер:  356 MB   |    Зарегистрирован:  1 месяц 2 дня   |    Скачан:  0 раз

Полного источника не было: Никогда

 
   
 
 

dash ®

Пол:
Не указан
Стаж:
2 месяца 4 дня
Сообщений:
121

Lanner, Fahrbach (all family), Strauss (all family) - Walzer à la Paganini. Musik des Biedermeier III
Жанр: Classical chamber
Страна-производитель диска: Made in Japan
Год издания диска: 1993
Издатель (лейбл): Denon/Nippon Columbia, Japan
Номер по каталогу: CO-75779
Дата записи: 1993
Аудиокодек: FLAC
Тип рипа: image+.cue
Битрейт аудио: lossless
Продолжительность: 75'15
Источник: релизер
сайт-источник/ник/другое: Fasch, подарок
Наличие сканов в содержимом раздачи: да
Треклист:
01. J Strauss I - Walzer (à la Paganini), Op.11 [0:06:00.62]
02. J. Lanner - Original Oberösterreichischer-Ländler, Op.186 [0:07:57.13]
03. P. Fahrbach II - Auf Urlaub, Polka schnell, Op.66 [0:02:26.22]
04. J. Strauss I - Die Vier Temperamente, Walzer, Op.59 [0:09:45.65]
05. J. Strauss I - Sperl-Polka, Op.133 [0:02:19.25]
06. J. Lanner - Banket-Polonaise, Op.135 [0:03:40.05]
07. J. Strauss I - Jugendfeuer Galopp, Op.90 [0:02:24.40]
08. J. Strauss II - Neue Pizzicato-Polka, Op.449 [0:03:45.48]
09. J. Lanner - S'Hoamweh, Ländler, Op.202 [0:10:32.25]
10. Josef Strauss - Moulinét-Polka, Polka française [0:03:08.12]
11. J. Strauss I - Seufzer-Galopp, Op.9 [0:01:43.70]
12. J. Strauss I - Bajaderen-Walzer, Op.53 [0:08:07.13]
13. P. Fahrbach I - Lustige Sprünge, Polka française, Op.307 [0:03:48.65]
14. J. Lanner - Bruder lauf, Galopp, Op.44 [0:01:20.20]
15. J. Lanner - Hofball-Tänze, Walzer, Op.161 [0:09:19.27]

Исполнители

Joseph Lanner (1801-1843)
Johann Strauss, Vater (1804-1849)
Johann Strauss, Sohn (1825-1899)
Josef Strauss (1827-1870)
Philipp Fahrbach, Vater (1815-1885)
Philipp Fahrbach, Sohn (1843-1894)
Walzer à la Paganini. Musik des Biedermeier III
Biedermeier Ensemble Wien

Лог создания рипа

Exact Audio Copy V1.3 from 2. September 2016
EAC extraction logfile from 7. January 2018, 17:13
Biedermeier Ensemble Wien / Musik des Biedermeier III, Walzer a la Paganini
Used drive : HL-DT-STDVDRAM GSA-4081B Adapter: 1 ID: 1
Read mode : Secure
Utilize accurate stream : Yes
Defeat audio cache : Yes
Make use of C2 pointers : No
Read offset correction : 667
Overread into Lead-In and Lead-Out : No
Fill up missing offset samples with silence : Yes
Delete leading and trailing silent blocks : No
Null samples used in CRC calculations : Yes
Used interface : Native Win32 interface for Win NT & 2000
Used output format : User Defined Encoder
Selected bitrate : 768 kBit/s
Quality : High
Add ID3 tag : No
Command line compressor : C:\Program Files\Exact Audio Copy\FLAC\FLAC.EXE
Additional command line options : -6 -V -T "ARTIST=%artist%" -T "TITLE=%title%" -T "ALBUM=%albumtitle%" -T "DATE=%year%" -T "TRACKNUMBER=%tracknr%" -T "GENRE=%genre%" -T "COMMENT=%comment%" -T "BAND=%albuminterpret%" -T "ALBUMARTIST=%albuminterpret%" -T "COMPOSER=%composer%" %haslyrics%--tag-from-file=LYRICS="%lyricsfile%"%haslyrics% -T "DISCNUMBER=%cdnumber%" -T "TOTALDISCS=%totalcds%" -T "TOTALTRACKS=%numtracks%" %hascover%--picture="%coverfile%"%hascover% %source% -o %dest%
TOC of the extracted CD
Track | Start | Length | Start sector | End sector
---------------------------------------------------------
1 | 0:00.00 | 6:00.62 | 0 | 27061
2 | 6:00.62 | 7:57.13 | 27062 | 62849
3 | 13:58.00 | 2:26.22 | 62850 | 73821
4 | 16:24.22 | 9:45.65 | 73822 | 117761
5 | 26:10.12 | 2:19.25 | 117762 | 128211
6 | 28:29.37 | 3:40.05 | 128212 | 144716
7 | 32:09.42 | 2:24.40 | 144717 | 155556
8 | 34:34.07 | 3:45.48 | 155557 | 172479
9 | 38:19.55 | 10:32.25 | 172480 | 219904
10 | 48:52.05 | 3:08.12 | 219905 | 234016
11 | 52:00.17 | 1:43.70 | 234017 | 241811
12 | 53:44.12 | 8:07.13 | 241812 | 278349
13 | 61:51.25 | 3:48.65 | 278350 | 295514
14 | 65:40.15 | 1:20.20 | 295515 | 301534
15 | 67:00.35 | 9:19.27 | 301535 | 343486
Range status and errors
Selected range
Filename C:\Users\Miguel Angel\Downloads\Biedermeier Ensemble Wien III\Biedermeier Ensemble Wien - Musik des Biedermeier III, Walzer a la Paganini.wav
Peak level 99.8 %
Extraction speed 4.7 X
Range quality 100.0 %
Test CRC 7C33198C
Copy CRC 7C33198C
Copy OK
No errors occurred
AccurateRip summary
Track 1 accurately ripped (confidence 3) [12776DE9] (AR v2)
Track 2 accurately ripped (confidence 4) [89F4BD26] (AR v2)
Track 3 accurately ripped (confidence 4) [FEACC440] (AR v2)
Track 4 accurately ripped (confidence 4) [34FFE0DA] (AR v2)
Track 5 accurately ripped (confidence 4) [03825D61] (AR v2)
Track 6 accurately ripped (confidence 4) [2B329AE6] (AR v2)
Track 7 accurately ripped (confidence 4) [2FAA29A2] (AR v2)
Track 8 accurately ripped (confidence 4) [C3D1D032] (AR v2)
Track 9 accurately ripped (confidence 3) [FC077A1D] (AR v2)
Track 10 accurately ripped (confidence 3) [FCFA9CDC] (AR v2)
Track 11 accurately ripped (confidence 4) [26F17E16] (AR v2)
Track 12 accurately ripped (confidence 4) [49992A71] (AR v2)
Track 13 accurately ripped (confidence 3) [0137DEE3] (AR v2)
Track 14 accurately ripped (confidence 3) [D0BB7DDD] (AR v2)
Track 15 accurately ripped (confidence 3) [7EDE7AE3] (AR v2)
All tracks accurately ripped
End of status report
---- CUETools DB Plugin V2.1.6
[CTDB TOCID: A.t3VlYsaYCyCs0tcmzh3aU1AI4-] found
Submit result: A.t3VlYsaYCyCs0tcmzh3aU1AI4- has been confirmed
Track | CTDB Status
1 | (10/10) Accurately ripped
2 | ( 9/10) Accurately ripped
3 | ( 9/10) Accurately ripped
4 | ( 9/10) Accurately ripped
5 | ( 9/10) Accurately ripped
6 | ( 9/10) Accurately ripped
7 | ( 9/10) Accurately ripped
8 | ( 9/10) Accurately ripped
9 | ( 9/10) Accurately ripped
10 | ( 9/10) Accurately ripped
11 | ( 9/10) Accurately ripped
12 | ( 9/10) Accurately ripped
13 | ( 9/10) Accurately ripped
14 | ( 9/10) Accurately ripped
15 | ( 9/10) Accurately ripped
==== Log checksum 0C6B758D99DA26A920B6E0A480FFF734509AE28A5FBB2A3851D0024D2D96E2C3 ====
------------------------------------------------------------
Exact Audio Copy V1.3 from 2. September 2016
EAC extraction logfile from 7. January 2018, 17:13
Biedermeier Ensemble Wien / Musik des Biedermeier III, Walzer a la Paganini
Used drive : HL-DT-STDVDRAM GSA-4081B Adapter: 1 ID: 1
Read mode : Secure
Utilize accurate stream : Yes
Defeat audio cache : Yes
Make use of C2 pointers : No
Read offset correction : 667
Overread into Lead-In and Lead-Out : No
Fill up missing offset samples with silence : Yes
Delete leading and trailing silent blocks : No
Null samples used in CRC calculations : Yes
Used interface : Native Win32 interface for Win NT & 2000
Used output format : User Defined Encoder
Selected bitrate : 768 kBit/s
Quality : High
Add ID3 tag : No
Command line compressor : C:\Program Files\Exact Audio Copy\FLAC\FLAC.EXE
Additional command line options : -6 -V -T "ARTIST=%artist%" -T "TITLE=%title%" -T "ALBUM=%albumtitle%" -T "DATE=%year%" -T "TRACKNUMBER=%tracknr%" -T "GENRE=%genre%" -T "COMMENT=%comment%" -T "BAND=%albuminterpret%" -T "ALBUMARTIST=%albuminterpret%" -T "COMPOSER=%composer%" %haslyrics%--tag-from-file=LYRICS="%lyricsfile%"%haslyrics% -T "DISCNUMBER=%cdnumber%" -T "TOTALDISCS=%totalcds%" -T "TOTALTRACKS=%numtracks%" %hascover%--picture="%coverfile%"%hascover% %source% -o %dest%
TOC of the extracted CD
Track | Start | Length | Start sector | End sector
---------------------------------------------------------
1 | 0:00.00 | 6:00.62 | 0 | 27061
2 | 6:00.62 | 7:57.13 | 27062 | 62849
3 | 13:58.00 | 2:26.22 | 62850 | 73821
4 | 16:24.22 | 9:45.65 | 73822 | 117761
5 | 26:10.12 | 2:19.25 | 117762 | 128211
6 | 28:29.37 | 3:40.05 | 128212 | 144716
7 | 32:09.42 | 2:24.40 | 144717 | 155556
8 | 34:34.07 | 3:45.48 | 155557 | 172479
9 | 38:19.55 | 10:32.25 | 172480 | 219904
10 | 48:52.05 | 3:08.12 | 219905 | 234016
11 | 52:00.17 | 1:43.70 | 234017 | 241811
12 | 53:44.12 | 8:07.13 | 241812 | 278349
13 | 61:51.25 | 3:48.65 | 278350 | 295514
14 | 65:40.15 | 1:20.20 | 295515 | 301534
15 | 67:00.35 | 9:19.27 | 301535 | 343486
Range status and errors
Selected range
Filename C:\Users\Miguel Angel\Downloads\Biedermeier Ensemble Wien III\Biedermeier Ensemble Wien - Musik des Biedermeier III, Walzer a la Paganini.wav
Peak level 99.8 %
Extraction speed 4.7 X
Range quality 100.0 %
Test CRC 7C33198C
Copy CRC 7C33198C
Copy OK
No errors occurred
AccurateRip summary
Track 1 accurately ripped (confidence 3) [12776DE9] (AR v2)
Track 2 accurately ripped (confidence 4) [89F4BD26] (AR v2)
Track 3 accurately ripped (confidence 4) [FEACC440] (AR v2)
Track 4 accurately ripped (confidence 4) [34FFE0DA] (AR v2)
Track 5 accurately ripped (confidence 4) [03825D61] (AR v2)
Track 6 accurately ripped (confidence 4) [2B329AE6] (AR v2)
Track 7 accurately ripped (confidence 4) [2FAA29A2] (AR v2)
Track 8 accurately ripped (confidence 4) [C3D1D032] (AR v2)
Track 9 accurately ripped (confidence 3) [FC077A1D] (AR v2)
Track 10 accurately ripped (confidence 3) [FCFA9CDC] (AR v2)
Track 11 accurately ripped (confidence 4) [26F17E16] (AR v2)
Track 12 accurately ripped (confidence 4) [49992A71] (AR v2)
Track 13 accurately ripped (confidence 3) [0137DEE3] (AR v2)
Track 14 accurately ripped (confidence 3) [D0BB7DDD] (AR v2)
Track 15 accurately ripped (confidence 3) [7EDE7AE3] (AR v2)
All tracks accurately ripped
End of status report
---- CUETools DB Plugin V2.1.6
[CTDB TOCID: A.t3VlYsaYCyCs0tcmzh3aU1AI4-] found
Submit result: A.t3VlYsaYCyCs0tcmzh3aU1AI4- has been confirmed
Track | CTDB Status
1 | (10/10) Accurately ripped
2 | ( 9/10) Accurately ripped
3 | ( 9/10) Accurately ripped
4 | ( 9/10) Accurately ripped
5 | ( 9/10) Accurately ripped
6 | ( 9/10) Accurately ripped
7 | ( 9/10) Accurately ripped
8 | ( 9/10) Accurately ripped
9 | ( 9/10) Accurately ripped
10 | ( 9/10) Accurately ripped
11 | ( 9/10) Accurately ripped
12 | ( 9/10) Accurately ripped
13 | ( 9/10) Accurately ripped
14 | ( 9/10) Accurately ripped
15 | ( 9/10) Accurately ripped
==== Log checksum 0C6B758D99DA26A920B6E0A480FFF734509AE28A5FBB2A3851D0024D2D96E2C3 ====

Содержание индексной карты (.CUE)

REM GENRE Classical
REM DATE 1993
REM DISCID BB11E30F
REM COMMENT "ExactAudioCopy v1.3"
PERFORMER "Biedermeier Ensemble Wien"
TITLE "Musik des Biedermeier III, Walzer à la Paganini"
REM COMPOSER "Joseph Lanner (1801-1843), Johann Strauss, Vater (1804-1849), Johann Strauss, Sohn (1825-1899), Josef Strauss (1827-1870), Philipp Fahrbach, Vater (1815-1885), Philipp Fahrbach, Sohn (1843-1894)"
FILE "Biedermeier Ensemble Wien - Musik des Biedermeier III, Walzer (à la Paganini).flac" WAVE
TRACK 01 AUDIO
TITLE "Johann Strauss, Vater: Walzer (à la Paganini), Op.11"
PERFORMER "Biedermeier Ensemble Wien"
REM COMPOSER "Johann Strauss, Vater (1804-1849)"
INDEX 01 00:00:00
TRACK 02 AUDIO
TITLE "Joseph Lanner: Original Oberüsterreichischer-Ländler, Op.186"
PERFORMER "Biedermeier Ensemble Wien"
REM COMPOSER "Joseph Lanner (1801-1843)"
INDEX 00 06:00:43
INDEX 01 06:00:62
TRACK 03 AUDIO
TITLE "Philipp Fahrbach, Sohn: Auf Urlaub, Polka schnell, Op.66"
PERFORMER "Biedermeier Ensemble Wien"
REM COMPOSER "Philipp Fahrbach, Sohn (1843-1894)"
INDEX 00 13:55:63
INDEX 01 13:58:00
TRACK 04 AUDIO
TITLE "Johann Strauss, Vater: Die Vier Temperamente, Walzer, Op.59"
PERFORMER "Biedermeier Ensemble Wien"
REM COMPOSER "Johann Strauss, Vater (1804-1849)"
INDEX 00 16:22:47
INDEX 01 16:24:22
TRACK 05 AUDIO
TITLE "Johann Strauss, Vater: Sperl-Polka, Op.133"
PERFORMER "Biedermeier Ensemble Wien"
REM COMPOSER "Johann Strauss, Vater (1804-1849)"
INDEX 01 26:10:12
TRACK 06 AUDIO
TITLE "Joseph Lanner: Bankeе-Polonaise, Op, 135"
PERFORMER "Biedermeier Ensemble Wien"
REM COMPOSER "Joseph Lanner (1801-1843)"
INDEX 00 28:28:37
INDEX 01 28:29:37
TRACK 07 AUDIO
TITLE "Johann Strauss, Vater: Jugendfeuer-Galopp, Op.90"
PERFORMER "Biedermeier Ensemble Wien"
REM COMPOSER "Johann Strauss, Vater (1804-1849)"
INDEX 00 32:08:12
INDEX 01 32:09:42
TRACK 08 AUDIO
TITLE "Johann Strauss, Sohn: Neue Pizzicato-Polka, Op.449"
PERFORMER "Biedermeier Ensemble Wien"
REM COMPOSER "Johann Strauss, Sohn (1825-1899)"
INDEX 00 34:32:70
INDEX 01 34:34:07
TRACK 09 AUDIO
TITLE "Joseph Lanner: S'Hoamweh, Ländler, Op.202"
PERFORMER "Biedermeier Ensemble Wien"
REM COMPOSER "Joseph Lanner (1801-1843)"
INDEX 00 38:18:55
INDEX 01 38:19:55
TRACK 10 AUDIO
TITLE "Josef Strauss: Moulinét-Polka, Polka française, Op.57"
PERFORMER "Biedermeier Ensemble Wien"
REM COMPOSER "Josef Strauss (1827-1870)"
INDEX 00 48:50:38
INDEX 01 48:52:05
TRACK 11 AUDIO
TITLE "Johann Strauss, Vater: Seufzer-Galopp, Op.9"
PERFORMER "Biedermeier Ensemble Wien"
REM COMPOSER "Johann Strauss, Vater (1804-1849)"
INDEX 00 51:58:52
INDEX 01 52:00:17
TRACK 12 AUDIO
TITLE "Johann Strauss, Vater: Bajaderen-Walzer, Op.53"
PERFORMER "Biedermeier Ensemble Wien"
REM COMPOSER "Johann Strauss, Vater (1804-1849)"
INDEX 00 53:43:50
INDEX 01 53:44:12
TRACK 13 AUDIO
TITLE "Philipp Fahrbach, Vater: Lustige Sprünge, Polka française, Op.307"
PERFORMER "Biedermeier Ensemble Wien"
REM COMPOSER "Philipp Fahrbach, Vater (1815-1885)"
INDEX 01 61:51:25
TRACK 14 AUDIO
TITLE "Joseph Lanner: Bruder lauf, Galopp, Op.44"
PERFORMER "Biedermeier Ensemble Wien"
REM COMPOSER "Joseph Lanner (1801-1843)"
INDEX 00 65:38:63
INDEX 01 65:40:15
TRACK 15 AUDIO
TITLE "Joseph Lanner: Hofball-Tänze, Walzer, Op.161"
PERFORMER "Biedermeier Ensemble Wien"
REM COMPOSER "Joseph Lanner (1801-1843)"
INDEX 00 66:59:08
INDEX 01 67:00:35
[cybertorrent.ru].t41578.torrent 
Торрент: Зарегистрирован [ 2018-03-19 15:15 ] · ECA7F792A1DC5215F133D88845FB67B134AF839C

Скачать .torrent

Скачать

16 KB

Статус: проверено
Скачан: 0 раз
Размер: 356 MB
Профиль [ЛС]
Показать сообщения:    

Текущее время: 22-Апр 14:36

Часовой пояс: UTC ± 0



Вы не можете начинать темы
Вы не можете отвечать на сообщения
Вы не можете редактировать свои сообщения
Вы не можете удалять свои сообщения
Вы не можете голосовать в опросах
Вы не можете прикреплять файлы к сообщениям
Вы можете скачивать файлы