Статистика раздачи
Размер:  595 MB   |    Зарегистрирован:  1 месяц 2 дня   |    Скачан:  0 раз

Полного источника не было: Никогда

 
   
 
 

dash ®

Пол:
Не указан
Стаж:
2 месяца 4 дня
Сообщений:
121

Brahms - The String Quartets & Piano Quintet
Жанр: Classical chamber
Страна-производитель диска: Made in Germany
Год издания диска: 1997
Издатель (лейбл): Hyperion
Номер по каталогу: CDD22018
Дата записи: 1992
Аудиокодек: FLAC
Тип рипа: image+.cue
Битрейт аудио: lossless
Продолжительность: 66'58 + 78'08 / Duration 02:24:57
Источник: релизер
сайт-источник/ник/другое: Horacio, classicallibrary
Наличие сканов в содержимом раздачи: да
Треклист:
Disc: 1
String Quartet In C Minor, Op. 51, No. 1:
1. Allegro
2. Romanze: Poco adagio
3. Allegretto molto moderato e comodo - Un poco piu animato
4. Allegro
String Quartet In A Minor, Op. 51, No. 2:
5. Allegro non troppo
6. Andante moderato
7. Quasi Menuetto, moderato - Allegro vivace
8. Finale: Allegro non assai
Disc: 2
String Quartet In B Flat Major, Op. 67:
1. Vivace
2. Andante
3. Agitato, Allegretto non troppo
4. Poco allegretto con variazoni
Piano Quintet In F Minor, Op. 34:
5. Allegro non troppo
6. Andante, un poco adagio
7. Scherzo: Allegro
8. Finale: Poco sostenuto - Allegro non troppo - Presto non troppo

Исполнители

Johannes Brahms
The Three String Quartets; Piano Quintet
The New Budapest String Quartet
Piers Lane (Piano)
Release Date: September 9, 1997
Audio CD (1 Jan. 2000)

Лог создания рипа

CD1

Exact Audio Copy V1.1 from 23. June 2015
EAC extraction logfile from 27. February 2018, 13:26
New Budapest Quartet / Brahms: String Quartets, Op. 51
Used drive : TSSTcorpCDDVDW SE-208AB Adapter: 1 ID: 1
Read mode : Secure
Utilize accurate stream : Yes
Defeat audio cache : Yes
Make use of C2 pointers : No
Read offset correction : 6
Overread into Lead-In and Lead-Out : No
Fill up missing offset samples with silence : Yes
Delete leading and trailing silent blocks : No
Null samples used in CRC calculations : Yes
Used interface : Native Win32 interface for Win NT & 2000
Used output format : User Defined Encoder
Selected bitrate : 1024 kBit/s
Quality : High
Add ID3 tag : No
Command line compressor : C:\Program Files (x86)\Exact Audio Copy\FLAC\FLAC.EXE
Additional command line options : -8 -V -T "ARTIST=%artist%" -T "TITLE=%title%" -T "ALBUM=%albumtitle%" -T "DATE=%year%" -T "TRACKNUMBER=%tracknr%" -T "TOTALTRACKS=%numtracks%" -T "GENRE=%genre%" -T "ALBUMARTIST=%albumartist%" -T "ALBUM ARTIST=%albumartist%" -T "COMMENT=EAC Secure Mode, Test & Copy, AccurateRip, FLAC -8" %source%
TOC of the extracted CD
Track | Start | Length | Start sector | End sector
---------------------------------------------------------
1 | 0:00.00 | 11:08.65 | 0 | 50164
2 | 11:08.65 | 7:17.20 | 50165 | 82959
3 | 18:26.10 | 8:50.60 | 82960 | 122769
4 | 27:16.70 | 6:05.42 | 122770 | 150186
5 | 33:22.37 | 12:28.65 | 150187 | 206351
6 | 45:51.27 | 9:20.68 | 206352 | 248419
7 | 55:12.20 | 5:02.47 | 248420 | 271116
8 | 60:14.67 | 6:43.30 | 271117 | 301371
Range status and errors
Selected range
Filename C:\EAC RIPS\Brahms- String Quartets, Op. 51.wav
Peak level 72.4 %
Extraction speed 4.8 X
Range quality 100.0 %
Test CRC A119A650
Copy CRC A119A650
Copy OK
No errors occurred
AccurateRip summary
Track 1 accurately ripped (confidence 2) [77362061] (AR v2)
Track 2 accurately ripped (confidence 2) [3EC814F1] (AR v2)
Track 3 accurately ripped (confidence 2) [23705AB0] (AR v2)
Track 4 accurately ripped (confidence 2) [2F697F43] (AR v2)
Track 5 accurately ripped (confidence 2) [B6F770B3] (AR v2)
Track 6 accurately ripped (confidence 2) [093CDAFA] (AR v2)
Track 7 accurately ripped (confidence 2) [7E46F3D2] (AR v2)
Track 8 accurately ripped (confidence 2) [DBB6F33C] (AR v2)
All tracks accurately ripped
End of status report
---- CUETools DB Plugin V2.1.6
[CTDB TOCID: vC0s8PUzJagMyb9Gi6wuR_iSi2o-] found
Submit result: vC0s8PUzJagMyb9Gi6wuR_iSi2o- has been confirmed
Track | CTDB Status
1 | (14/15) Accurately ripped
2 | (14/15) Accurately ripped
3 | (14/15) Accurately ripped
4 | (14/15) Accurately ripped
5 | (14/15) Accurately ripped
6 | (12/15) Accurately ripped
7 | (12/15) Accurately ripped
8 | (12/15) Accurately ripped
==== Log checksum 6B7BA629FCB3157DCF5FE44667B46858363BCDF5A9E7326A5501F5EE7DC0FF87 ====

CD2

Exact Audio Copy V1.1 from 23. June 2015
EAC extraction logfile from 27. February 2018, 14:50
New Budapest Quartet / Brahms: String Quartet, Op. 67, Piano Quintet
Used drive : TSSTcorpCDDVDW SE-208AB Adapter: 1 ID: 1
Read mode : Secure
Utilize accurate stream : Yes
Defeat audio cache : Yes
Make use of C2 pointers : No
Read offset correction : 6
Overread into Lead-In and Lead-Out : No
Fill up missing offset samples with silence : Yes
Delete leading and trailing silent blocks : No
Null samples used in CRC calculations : Yes
Used interface : Native Win32 interface for Win NT & 2000
Used output format : User Defined Encoder
Selected bitrate : 1024 kBit/s
Quality : High
Add ID3 tag : No
Command line compressor : C:\Program Files (x86)\Exact Audio Copy\FLAC\FLAC.EXE
Additional command line options : -8 -V -T "ARTIST=%artist%" -T "TITLE=%title%" -T "ALBUM=%albumtitle%" -T "DATE=%year%" -T "TRACKNUMBER=%tracknr%" -T "TOTALTRACKS=%numtracks%" -T "GENRE=%genre%" -T "ALBUMARTIST=%albumartist%" -T "ALBUM ARTIST=%albumartist%" -T "COMMENT=EAC Secure Mode, Test & Copy, AccurateRip, FLAC -8" %source%
TOC of the extracted CD
Track | Start | Length | Start sector | End sector
---------------------------------------------------------
1 | 0:00.00 | 9:10.55 | 0 | 41304
2 | 9:10.55 | 7:24.60 | 41305 | 74664
3 | 16:35.40 | 7:55.30 | 74665 | 110319
4 | 24:30.70 | 10:36.50 | 110320 | 158069
5 | 35:07.45 | 15:42.50 | 158070 | 228769
6 | 50:50.20 | 8:54.07 | 228770 | 268826
7 | 59:44.27 | 7:40.13 | 268827 | 303339
8 | 67:24.40 | 10:43.45 | 303340 | 351609
Range status and errors
Selected range
Filename C:\EAC RIPS\Brahms- String Quartet, Op. 67, Piano Quintet.wav
Peak level 94.3 %
Extraction speed 5.1 X
Range quality 100.0 %
Test CRC 1AE3170C
Copy CRC 1AE3170C
Copy OK
No errors occurred
AccurateRip summary
Track 1 accurately ripped (confidence 4) [E2FD2833] (AR v2)
Track 2 accurately ripped (confidence 4) [77337C98] (AR v2)
Track 3 accurately ripped (confidence 4) [11BC39D4] (AR v2)
Track 4 accurately ripped (confidence 4) [5E4B21D4] (AR v2)
Track 5 accurately ripped (confidence 4) [4513CB00] (AR v2)
Track 6 accurately ripped (confidence 4) [09FE0CD5] (AR v2)
Track 7 accurately ripped (confidence 4) [3DD7359A] (AR v2)
Track 8 accurately ripped (confidence 4) [07EF0251] (AR v2)
All tracks accurately ripped
End of status report
---- CUETools DB Plugin V2.1.6
[CTDB TOCID: PSOYyKNQVqKlE6HlOmb6ERnWV0k-] found
Submit result: PSOYyKNQVqKlE6HlOmb6ERnWV0k- has been confirmed
Track | CTDB Status
1 | (11/11) Accurately ripped
2 | (11/11) Accurately ripped
3 | (11/11) Accurately ripped
4 | (11/11) Accurately ripped
5 | (11/11) Accurately ripped
6 | (11/11) Accurately ripped
7 | (11/11) Accurately ripped
8 | (11/11) Accurately ripped
==== Log checksum 547AD4D3741B0C961A6EAACFCDFC960410DDB3C231FAE97EF63A854BEFA1101E ====

Содержание индексной карты (.CUE)

CD1

REM GENRE Classical
REM DATE 1992
REM DISCID 5D0FB208
REM COMMENT "ExactAudioCopy v1.1"
CATALOG 0000000000000
PERFORMER "New Budapest Quartet"
TITLE "Brahms: String Quartets, Op. 51"
FILE "Brahms- String Quartets, Op. 51.flac" WAVE
TRACK 01 AUDIO
TITLE "Brahms: String Quartet In C minor, Op. 51/1 - 1. Allegro"
PERFORMER "New Budapest Quartet"
INDEX 01 00:00:00
TRACK 02 AUDIO
TITLE "Brahms: String Quartet In C minor, Op. 51/1 - 2. Romanze: Poco adagio"
PERFORMER "New Budapest Quartet"
INDEX 00 11:01:37
INDEX 01 11:08:65
TRACK 03 AUDIO
TITLE "Brahms: String Quartet In C minor, Op. 51/1 - 3. Allegretto molto moderato e comodo - Un poco più animato"
PERFORMER "New Budapest Quartet"
INDEX 00 18:21:45
INDEX 01 18:26:10
TRACK 04 AUDIO
TITLE "Brahms: String Quartet In C minor, Op. 51/1 - 4. Allegro"
PERFORMER "New Budapest Quartet"
INDEX 00 27:11:00
INDEX 01 27:16:70
TRACK 05 AUDIO
TITLE "Brahms: String Quartet In A minor, Op. 51/2 - 1. Allegro non troppo"
PERFORMER "New Budapest Quartet"
INDEX 00 33:12:22
INDEX 01 33:22:37
TRACK 06 AUDIO
TITLE "Brahms: String Quartet In A minor, Op. 51/2 - 2. Andante moderato"
PERFORMER "New Budapest Quartet"
INDEX 00 45:44:55
INDEX 01 45:51:27
TRACK 07 AUDIO
TITLE "Brahms: String Quartet In A minor, Op. 51/2 - 3. Quasi Menuetto, moderato - Allegro vivace"
PERFORMER "New Budapest Quartet"
INDEX 00 55:08:35
INDEX 01 55:12:20
TRACK 08 AUDIO
TITLE "Brahms: String Quartet In A minor, Op. 51/2 - 4. Allegro non assai"
PERFORMER "New Budapest Quartet"
INDEX 00 60:10:20
INDEX 01 60:14:67

CD2

REM GENRE Classical
REM DATE 1992
REM DISCID 6F125008
REM COMMENT "ExactAudioCopy v1.1"
CATALOG 0000000000000
PERFORMER "New Budapest Quartet"
TITLE "Brahms: String Quartet, Op. 67, Piano Quintet"
FILE "Brahms- String Quartet, Op. 67, Piano Quintet.flac" WAVE
TRACK 01 AUDIO
TITLE "Brahms: String Quartet In B Flat, Op. 67 - 1. Vivace"
PERFORMER "New Budapest Quartet"
INDEX 01 00:00:00
TRACK 02 AUDIO
TITLE "Brahms: String Quartet In B Flat, Op. 67 - 2. Andante"
PERFORMER "New Budapest Quartet"
INDEX 00 09:05:50
INDEX 01 09:10:55
TRACK 03 AUDIO
TITLE "Brahms: String Quartet In B Flat, Op. 67 - 3. Agitato, Allegretto non troppo"
PERFORMER "New Budapest Quartet"
INDEX 00 16:30:52
INDEX 01 16:35:40
TRACK 04 AUDIO
TITLE "Brahms: String Quartet In B Flat, Op. 67 - 4. Poco Allegretto Con Variazioni"
PERFORMER "New Budapest Quartet"
INDEX 00 24:25:50
INDEX 01 24:30:70
TRACK 05 AUDIO
TITLE "Brahms: Piano Quintet In F Minor, Op. 34 - 1. Allegro non troppo"
PERFORMER "Piers Lane; New Budapest Quartet"
INDEX 00 34:55:55
INDEX 01 35:07:45
TRACK 06 AUDIO
TITLE "Brahms: Piano Quintet In F Minor, Op. 34 - 2. Andante, un poco adagio"
PERFORMER "Piers Lane; New Budapest Quartet"
INDEX 00 50:44:12
INDEX 01 50:50:20
TRACK 07 AUDIO
TITLE "Brahms: Piano Quintet In F Minor, Op. 34 - 3. Scherzo: Allegro"
PERFORMER "Piers Lane; New Budapest Quartet"
INDEX 00 59:40:67
INDEX 01 59:44:27
TRACK 08 AUDIO
TITLE "Brahms: Piano Quintet In F Minor, Op. 34 - 4. Finale: Poco sostenuto - Allegro non troppo - Presto non troppo"
PERFORMER "Piers Lane; New Budapest Quartet"
INDEX 00 67:18:12
INDEX 01 67:24:40

Доп. информация

The New Budapest quartet is not widely recorded - yet. This set, the first I had heard of theirs, made we want to hear more. As others have noted, the sound is excellent, warm and rich. It enhances the passionate intensity and intelligence of these performances. I had previously been familiar with the original Budapest's recordings on LP; the sound on these is much better. (I will not venture to compare the performances, since the original Budapest is simply in a class by itself.) These thoughtful interpretations reward repeated listening; I get some new insight or perspective each time I listen to one. The op. 67 almost sounded like a new piece when I heard it on this set. The third movment, mentioned in another review, is indeed different for Brahms, though I found it temperamentally reminiscent of another third movement, namely, the one in his third symphony. It is exquisitely rendered here. I cannot bear the piano quintet too often because of its emotional power. My other favorite recording is of the Guarneri with Rubinstein. This version lacks nothing. It brims with rich, articulate musicianship. Even the price is welcoming.
After hearing the Brahms, I searched out other recordings by this excellent and disciplined ensemble. I have been happy with their recordings of Borodin chamber music, d'Indy (the piano quintet is truly outstanding and features the same pianist) and the complete Beethoven quartets. The New Budapest preserves certain old school qualities in a modern context - in some respects they are the opposite of the Emerson Quartet, though both groups are technically accomplished. I find the New Budapest's recordings very rewarding and a pleasure to recommend. I look forward to hearing more from them.
....These are all vigorous, sensitive and consistently musical performances by the New Budapest Quartet with Piers Lane. The pace seems ideal and the rich Brahmsian textures are admirably showcased. The Piano Quintet is given an especially fine interpretation. Hyperion's sound is excellent. If this side of Brahms' chamber music appeals to you, you would be hard pressed to find a better overall display of these works. A solid recommendation for these warmly presented pieces.
[cybertorrent.ru].t41582.torrent 
Торрент: Зарегистрирован [ 2018-03-19 15:15 ] · D0CC01DE922A2BFC753E5D6814854D64A6E871C0

Скачать .torrent

Скачать

14 KB

Статус: проверено
Скачан: 0 раз
Размер: 595 MB
Профиль [ЛС]
Показать сообщения:    

Текущее время: 22-Апр 14:35

Часовой пояс: UTC ± 0



Вы не можете начинать темы
Вы не можете отвечать на сообщения
Вы не можете редактировать свои сообщения
Вы не можете удалять свои сообщения
Вы не можете голосовать в опросах
Вы не можете прикреплять файлы к сообщениям
Вы можете скачивать файлы