Статистика раздачи
Размер:  367 MB   |    Зарегистрирован:  1 месяц 2 дня   |    Скачан:  0 раз

Полного источника не было: Никогда

 
   
 
 

MaX ®

Пол:
Не указан
Стаж:
2 месяца 4 дня
Сообщений:
103

Agostino Steffani - Sonatori de la Gioiosa Marca - Suites Théatrales
Жанр: Classical suites
Страна-производитель диска: Made in France
Год издания диска: 2000
Издатель (лейбл): Divox
Номер по каталогу: CDX 79811
Дата записи: 1998
Аудиокодек: FLAC
Тип рипа: image+.cue
Битрейт аудио: lossless
Продолжительность: 64'00
Источник: релизер
сайт-источник/ник/другое: Ice, classicallibrary
Наличие сканов в содержимом раздачи: да

Треклист

Henrico Leone (Dramma Per Musica Rappresentata, Hannover 1688)
1 Sinfonia: Ouverture / Gay [Voci Nella Nave] 2:56
2 Air Grave [Henrico...Preso Da Un Grifone E Portata In Aria] 4:35
3 Air Gay 0:41
4 Rondeau 3:38
Ballo I Di Ninfe E Silvani
5 Menuet 8:32
6 Entrée - Enbtrée Alternativement Avec La Suivante - Entrée 3:45
7 Prélude Très Viste 4:53
8 Marche Grave 1:31
9 Gavotte 0:46
10 Trio Alternativement Avec Le Trio Suivant - Trio 3:03
11 La Retraitte Menuet 0:57
12 Prélude Pour Les Demons, Très Viste 0:42
Ballo II Di Demoni E Furie
13 Les Demons Très Viste - Gay - Les Mêmes 1:46
14 Marche 2:02
Ballo III Di Hero Et Amazoni
15 Entrée Des Heros, Grave 2:16
16 Chaconne 2:46
"I Trionfi Del Fato" O "Le Glorie D'Enea" (Hannover 1695)
17 Ouverture / Gay / Trez Lentement 4:31
18 Trio Alternativement Avec Le Menuet Suivant - Menuet 1:21
Bal De'Esprits
19 Les Ombres Graves 3:13
20 Menuet 1:15
Bal D'Amours Et Nayades
21 Air Vivace 1:39
22 Menuet 1:15
Bal De Jardiniers Et Jardinieres
23 Premier Rigaudon Alternativement Avec Le Suivant - Second Rigaudon 1:54
24 Marche Grave 1:56
25 Air Gay 0:39
Bal De Divinités
26 Gavotte 1:43
27 Entrée Grave 2:22
28 Gigue En Rondeau 1:36
"Niobe Regina Di Tebe" (Munich 1688)
29 Sinfonia: Grave [Trombe E Timpani A Tenda Chiusa] 5:09
"Amor Vien Dal Destino" (Düsseldorf 1709)
30 Introduzione Al Dramma [Coro Degli Dei Propitii E Contrari Ad Enea] 4:31

Исполнители

Agostino Steffani
Suites Théatrales
Sonatori de la Gioiosa Marca
Viola – Balász Bozai, Judit Földes
Violin [1] – Roberto Falcone, Stefano Zanchetta
Violin [2] – Chiharu Abe, Gabriele Folchi, Giovanni Dalla Vecchia
Violin, Concertmaster – Giorgio Fava
Bassoon – Alberto Guerra
Cello – Walter Vestidello
Oboe – Andrea Mion, Marco Cera
Recorder [Flauti Dolci] – Lorenzo Cavasanti, Maria De Martini
Theorbo – Giancarlo Rado
Timpani, Percussion – Alberto Macchini
Trombone – Gabriele Cassone, Jonathan Pia, Luca Marzana*, Mauro Bernasconi
Contrabass – Giancarlo Pavan
Harpsichord – Enrico Viccardi
Choir – In Canto
Chorus Master – Marina Bottacin
Ensemble – Sonatori De La Gioiosa Marca
Recording dates: Abbazia Di Rosazzo, Udine, Italy 6-8 Spetember 1998

Лог создания рипа

Exact Audio Copy V1.0 beta 3 from 29. August 2011
EAC extraction logfile from 6. December 2011, 23:31
Sonatori de la Gioiosa Marca / Steffani: Suites Theatrales
Used drive : TSSTcorpCDDVDW SE-S224Q Adapter: 1 ID: 0
Read mode : Secure
Utilize accurate stream : Yes
Defeat audio cache : Yes
Make use of C2 pointers : No
Read offset correction : 6
Overread into Lead-In and Lead-Out : No
Fill up missing offset samples with silence : Yes
Delete leading and trailing silent blocks : No
Null samples used in CRC calculations : Yes
Used interface : Native Win32 interface for Win NT & 2000
Used output format : User Defined Encoder
Selected bitrate : 896 kBit/s
Quality : High
Add ID3 tag : No
Command line compressor : C:\Program Files\Exact Audio Copy\FLAC\FLAC.EXE
Additional command line options : -6 -V -T "ARTIST=%artist%" -T "TITLE=%title%" -T "ALBUM=%albumtitle%" -T "DATE=%year%" -T "TRACKNUMBER=%tracknr%" -T "GENRE=%genre%" -T "COMMENT=%comment%" -T "BAND=%albuminterpret%" -T "ALBUMARTIST=%albuminterpret%" -T "COMPOSER=%composer%" %haslyrics%--tag-from-file=LYRICS="%lyricsfile%"%haslyrics% -T "DISCNUMBER=%cdnumber%" -T "TOTALDISCS=%totalcds%" -T "TOTALTRACKS=%numtracks%" %hascover%--picture="%coverfile%"%hascover% %source% -o %dest%
TOC of the extracted CD
Track | Start | Length | Start sector | End sector
---------------------------------------------------------
1 | 0:00.00 | 2:57.63 | 0 | 13337
2 | 2:57.63 | 2:18.25 | 13338 | 23712
3 | 5:16.13 | 0:41.16 | 23713 | 26803
4 | 5:57.29 | 3:38.29 | 26804 | 43182
5 | 9:35.58 | 1:23.40 | 43183 | 49447
6 | 10:59.23 | 3:45.54 | 49448 | 66376
7 | 14:45.02 | 0:17.38 | 66377 | 67689
8 | 15:02.40 | 1:30.65 | 67690 | 74504
9 | 16:33.30 | 0:46.03 | 74505 | 77957
10 | 17:19.33 | 3:04.53 | 77958 | 91810
11 | 20:24.11 | 0:57.53 | 91811 | 96138
12 | 21:21.64 | 0:41.25 | 96139 | 99238
13 | 22:03.14 | 1:47.52 | 99239 | 107315
14 | 23:50.66 | 2:02.12 | 107316 | 116477
15 | 25:53.03 | 2:16.43 | 116478 | 126720
16 | 28:09.46 | 2:50.41 | 126721 | 139511
17 | 31:00.12 | 4:32.05 | 139512 | 159916
18 | 35:32.17 | 1:22.53 | 159917 | 166119
19 | 36:54.70 | 3:13.31 | 166120 | 180625
20 | 40:08.26 | 0:58.31 | 180626 | 185006
21 | 41:06.57 | 1:39.06 | 185007 | 192437
22 | 42:45.63 | 1:15.72 | 192438 | 198134
23 | 44:01.60 | 1:54.27 | 198135 | 206711
24 | 45:56.12 | 1:56.26 | 206712 | 215437
25 | 47:52.38 | 0:39.17 | 215438 | 218379
26 | 48:31.55 | 1:43.53 | 218380 | 226157
27 | 50:15.33 | 2:22.14 | 226158 | 236821
28 | 52:37.47 | 1:37.42 | 236822 | 244138
29 | 54:15.14 | 5:06.21 | 244139 | 267109
30 | 59:21.35 | 4:35.45 | 267110 | 287779
Range status and errors
Selected range
Filename J:\ICE\S.ST.SdlGM\Sonatori de la Gioiosa Marca - Steffani- Suites Theatrales.wav
Peak level 100.0 %
Extraction speed 7.6 X
Range quality 100.0 %
Test CRC EC285600
Copy CRC EC285600
Copy OK
No errors occurred
AccurateRip summary
Track 1 not present in database
Track 2 not present in database
Track 3 not present in database
Track 4 not present in database
Track 5 not present in database
Track 6 not present in database
Track 7 not present in database
Track 8 not present in database
Track 9 not present in database
Track 10 not present in database
Track 11 not present in database
Track 12 not present in database
Track 13 not present in database
Track 14 not present in database
Track 15 not present in database
Track 16 not present in database
Track 17 not present in database
Track 18 not present in database
Track 19 not present in database
Track 20 not present in database
Track 21 not present in database
Track 22 not present in database
Track 23 not present in database
Track 24 not present in database
Track 25 not present in database
Track 26 not present in database
Track 27 not present in database
Track 28 not present in database
Track 29 not present in database
Track 30 not present in database
None of the tracks are present in the AccurateRip database
End of status report
---- CUETools DB Plugin V2.1.3
[CTDB TOCID: 1xt8J04gy9KqNenMhGkwcquHyT0-] disk not present in database, Submit result: 1xt8J04gy9KqNenMhGkwcquHyT0- has been uploaded
==== Log checksum A252A2EFE677CC9BC35E0778E31D90EFF14794CB7069E03E657A786E6E3A91DF ====

Содержание индексной карты (.CUE)

REM GENRE Classical
REM DATE 2004
REM DISCID BE0EFD1E
REM COMMENT "ExactAudioCopy v1.0b3"
PERFORMER "Sonatori de la Gioiosa Marca"
TITLE "Steffani: Suites Theatrales"
FILE "Agostino Steffani - Suites Théatrales - Sonatori de la Gioiosa Marca.flac" WAVE
TRACK 01 AUDIO
TITLE "“Henrico Leone” (Dramma / Per Musica Rappresentata / in Hannover / L'anno 1688, ms G-Lbm) - Sinfonia: Ouverture - Gay (Voci nella nave)"
PERFORMER "Marina Bottacin"
ISRC CE0Z29811001
FLAGS DCP
INDEX 01 00:00:00
TRACK 02 AUDIO
TITLE "Air Grave (“Henrico... preso da un Grifone e portato in aria”)"
PERFORMER "Sonatori de la Gioiosa Marca"
ISRC CE0Z29811002
FLAGS DCP
INDEX 01 02:57:63
TRACK 03 AUDIO
TITLE "Air Gay"
PERFORMER "Sonatori de la Gioiosa Marca"
ISRC CE0Z29811003
FLAGS DCP
INDEX 01 05:16:13
TRACK 04 AUDIO
TITLE "Rondeau"
PERFORMER "Sonatori de la Gioiosa Marca"
ISRC CE0Z29811004
FLAGS DCP
INDEX 01 05:57:29
TRACK 05 AUDIO
TITLE "Ballo I di Ninfe e Silvani. Menuet"
PERFORMER "Sonatori de la Gioiosa Marca"
ISRC CE0Z29811005
FLAGS DCP
INDEX 01 09:35:58
TRACK 06 AUDIO
TITLE "Entrée - Entrée alternativement avec la suivante - Entrée"
PERFORMER "Sonatori de la Gioiosa Marca"
ISRC CE0Z29811005
FLAGS DCP
INDEX 01 10:59:23
TRACK 07 AUDIO
TITLE "Prélude très viste"
PERFORMER "Sonatori de la Gioiosa Marca"
ISRC CE0Z29811007
FLAGS DCP
INDEX 01 14:45:02
TRACK 08 AUDIO
TITLE "Marche Grave"
PERFORMER "Sonatori de la Gioiosa Marca"
ISRC CE0Z29811008
FLAGS DCP
INDEX 01 15:02:40
TRACK 09 AUDIO
TITLE "Gavotte"
PERFORMER "Sonatori de la Gioiosa Marca"
ISRC CE0Z29811009
FLAGS DCP
INDEX 01 16:33:30
TRACK 10 AUDIO
TITLE "Trio alternativement avec le Trio suivant - Trio"
PERFORMER "Sonatori de la Gioiosa Marca"
ISRC CE0Z29811010
FLAGS DCP
INDEX 01 17:19:33
TRACK 11 AUDIO
TITLE "La Retraitte Menuet"
PERFORMER "Sonatori de la Gioiosa Marca"
ISRC CE0Z29811011
FLAGS DCP
INDEX 01 20:24:11
TRACK 12 AUDIO
TITLE "Prélude pour les Demons, très viste"
PERFORMER "Sonatori de la Gioiosa Marca"
ISRC CE0Z29811012
FLAGS DCP
INDEX 01 21:21:64
TRACK 13 AUDIO
TITLE "Ballo II di Demoni e Furie. Les Demons très viste - Gay - Les Mêmes"
PERFORMER "Sonatori de la Gioiosa Marca"
ISRC CE0Z29811013
FLAGS DCP
INDEX 01 22:03:14
TRACK 14 AUDIO
TITLE "Marche"
PERFORMER "Sonatori de la Gioiosa Marca"
ISRC CE0Z29811014
FLAGS DCP
INDEX 01 23:50:66
TRACK 15 AUDIO
TITLE "Ballo III di Heroi et Amazoni. Entree des Heros, Grave"
PERFORMER "Sonatori de la Gioiosa Marca"
ISRC CE0Z29811015
FLAGS DCP
INDEX 01 25:53:03
TRACK 16 AUDIO
TITLE "Chaconne"
PERFORMER "Sonatori de la Gioiosa Marca"
ISRC CE0Z29811016
FLAGS DCP
INDEX 01 28:09:46
TRACK 17 AUDIO
TITLE "“I Trionfi del Fato” o “Le Glorie d'Enea” (Hannover / L'anno 1695) - Ouverture - Gay - Trez lentement"
PERFORMER "Sonatori de la Gioiosa Marca"
ISRC CE0Z29811017
FLAGS DCP
INDEX 01 31:00:12
TRACK 18 AUDIO
TITLE "Trio alternativement avec le Menuet suivant - Menuet"
PERFORMER "Sonatori de la Gioiosa Marca"
ISRC CE0Z29811018
FLAGS DCP
INDEX 01 35:32:17
TRACK 19 AUDIO
TITLE "Bal de'Esprits. Les Ombres Grave"
PERFORMER "Sonatori de la Gioiosa Marca"
ISRC CE0Z29811019
FLAGS DCP
INDEX 01 36:54:70
TRACK 20 AUDIO
TITLE "Menuet"
PERFORMER "Sonatori de la Gioiosa Marca"
ISRC CE0Z29811020
FLAGS DCP
INDEX 01 40:08:26
TRACK 21 AUDIO
TITLE "Bal d'Amours et Nayades. Air vivace"
PERFORMER "Sonatori de la Gioiosa Marca"
ISRC CE0Z29811020
FLAGS DCP
INDEX 01 41:06:57
TRACK 22 AUDIO
TITLE "Menuet"
PERFORMER "Sonatori de la Gioiosa Marca"
ISRC CE0Z29811022
FLAGS DCP
INDEX 01 42:45:63
TRACK 23 AUDIO
TITLE "Bal de Jardiniers et Jardinieres. Premier Rigaudon alternativement avec le suivant - Second Rigaudon"
PERFORMER "Sonatori de la Gioiosa Marca"
ISRC CE0Z29811023
FLAGS DCP
INDEX 01 44:01:60
TRACK 24 AUDIO
TITLE "Marche Grave"
PERFORMER "Sonatori de la Gioiosa Marca"
ISRC CE0Z29811024
FLAGS DCP
INDEX 01 45:56:12
TRACK 25 AUDIO
TITLE "Air Gay"
PERFORMER "Sonatori de la Gioiosa Marca"
ISRC CE0Z29811025
FLAGS DCP
INDEX 01 47:52:38
TRACK 26 AUDIO
TITLE "Bal de Divinités: Gavotte"
PERFORMER "Sonatori de la Gioiosa Marca"
ISRC CE0Z29811026
FLAGS DCP
INDEX 01 48:31:55
TRACK 27 AUDIO
TITLE "Entrée Grave"
PERFORMER "Sonatori de la Gioiosa Marca"
ISRC CE0Z29811027
FLAGS DCP
INDEX 01 50:15:33
TRACK 28 AUDIO
TITLE "Gigue en Rondeau"
PERFORMER "Sonatori de la Gioiosa Marca"
ISRC CE0Z29811028
FLAGS DCP
INDEX 01 52:37:47
TRACK 29 AUDIO
TITLE "“Niobe Regina di Tiebe” (München 1688). Sinfonia: Grave (Trombe e timpani a tenda chiusa)"
PERFORMER "Sonatori de la Gioiosa Marca"
ISRC CE0Z29811029
FLAGS DCP
INDEX 01 54:15:14
TRACK 30 AUDIO
TITLE "“Amor vien dal destino” (Düsseldorf 1709). Introduzione al Dramma (Coro degli Dei propitii e contrari ad Enea)
PERFORMER "Marina Bottacin"
ISRC CE0Z29811030
FLAGS DCP
INDEX 01 59:21:35
[cybertorrent.ru].t41584.torrent 
Торрент: Зарегистрирован [ 2018-03-19 15:15 ] · D8B96113CBC24EC7FD0CD1181CFF9B698B0C6F84

Скачать .torrent

Скачать

17 KB

Статус: проверено
Скачан: 0 раз
Размер: 367 MB
Профиль [ЛС]
Показать сообщения:    

Текущее время: 22-Апр 14:35

Часовой пояс: UTC ± 0



Вы не можете начинать темы
Вы не можете отвечать на сообщения
Вы не можете редактировать свои сообщения
Вы не можете удалять свои сообщения
Вы не можете голосовать в опросах
Вы не можете прикреплять файлы к сообщениям
Вы можете скачивать файлы