Статистика раздачи
Размер:  34,19 GB   |    Зарегистрирован:  1 месяц 3 дня   |    Скачан:  0 раз

Полного источника не было: Никогда

 
   
 
 

koljan ®

Пол:
Не указан
Стаж:
2 месяца 7 дней
Сообщений:
472

Рик и Морти / Rick and Morty
Страна: США
Жанр: Комедия, Фантастика
Продолжительность серии: ~00:20:00
Год выпуска: 2013
Русские субтитры: есть
Перевод: Одноголосый закадровый | Сыендук
Режиссёр: Пит Мишелс, Брайан Ньютон, Джон Райс
Роли озвучивали: Джастин Ройланд, Крис Парнелл, Спенсер Грэммер, Сара Чок, Кари Уолгрен, Райан Ридли, Том Кенни, Морис ЛаМарш, Фил Хендри, Брэндон Джонсон
Описание: В центре сюжета — школьник по имени Морти и его дедушка Рик. Морти — самый обычный мальчик, который ничем не отличается от своих сверстников. А вот его дедуля занимается необычными научными исследованиями и зачастую полностью неадекватен. Он может в любое время дня и ночи схватить внука и отправиться вместе с ним в межпространственные приключения с помощью построенной из разного хлама летающей тарелки, которая способна перемещаться сквозь временной тоннель. Каждый раз эта парочка оказывается в самых неожиданных местах и самых нелепых ситуациях.
Доп. информация:
  • Звуковая дорожка номер 1 получена наложением выделенного голоса на центр оригинала.
  • Оригинальная звуковая дорожка заменена на TrueHD.
  • В 6-ой серии звук 24-битный.


    Автор оригинальной раздачи: Plazik
    Качество: BDRemux 1080p
    Формат: MKV
    Видео: 1920x1080 at 23.976 fps, VC-1, ~15000 kbps avg
    Аудио 1: Russian: 48 kHz/16-bit, DTS-HD MA 5.1, ~2200.00 kbps avg |Одноголосый закадровый, Сыендук|
    Аудио 2: English: 48 kHz/24-bit, TrueHD 5.1, ~2200.00 kbps avg
    Аудио 3: English: 48 kHz, AC3, 2/0 (L,R) ch, ~192.00 kbps avg |Creator and Animator Audio Commentar|
    Аудио 4: English: 48 kHz, AC3, 2/0 (L,R) ch, ~192.00 kbps avg |Special Guest Commentaries (6,8 и 10 серии)|
    Субтитры: Russian (Netflix), English SDH

    Знаете ли вы, что...

    • В 10 серии 1-го сезона, когда Рик убегает от своих копий из других измерений, можно заметить, как из одного из порталов выпадает кружка, ручка и блокнот Стэна Пайнса, персонажа «Гравити Фолз» (2012), который теряет эти вещи в серии «Общество слепого глаза».
    • Когда Рик переключает каналы с альтернативных вселенных, мелькает передача с альтернативной «Игрой престолов», где Тирион Ланнистер выше всех остальных.
    • В 5 серии 1 сезона, когда Рик заманивает духов клонов родителей Морти в устройство-ловушку, можно заметить, что эта ловушка - полная копия ловушки для привидений из мультсериала «Охотники за привидениями» (1997).
    • Во 2 серии 1 сезона, в сцене когда Рик и Морти попадают в сон миссис Оладушки, можно заметить двух гномов из «Гравити Фолз» (2012). Также в середине эпизода Морти смотрит мультик про кота, похожего на Гарфилда.
    • В 9 серии 1 сезона присутствует персонаж-отсылка к книге Стивена Кинга «Необходимые вещи», а также к роману Рэя Брэдбери «Что-то страшное грядёт».
    • 10 августа 2015 года был выпущен контент для игры Dota 2 - «Announcer Pack» с участием Рика и Морти.
    • В 2007 году Джастин Ройланд нарисовал якобы новый официальный мультсериал о приключениях Дока Брауна и Марти МакФлая из трилогии «Назад в будущее», являвшийся на самом деле гротескной пародией. Позже эти персонажи стали жить своей жизнью, отделившись от своих прообразов. Автор переименовал их в Рика и Морти и сделал самостоятельный сериал (в котором, конечно, угадывается влияние известной трилогии).

    MediaInfo

    Общее
    Уникальный идентификатор : 253938801490884550113029392292566591662 (0xBF0AD58D0993945C3525B115D874E8AE)
    Полное имя : G:\Rick and Morty (2013) [Season 1] BD-Remux 1080p\Rick.and.Morty.S01E01.Pilot.1080p.BDRemux.Rus.Eng.Subs.mkv
    Формат : Matroska
    Версия формата : Version 4 / Version 2
    Размер файла : 3,06 Гбайт
    Продолжительность : 22 м. 1 с.
    Режим общего битрейта : Переменный
    Общий поток : 19,9 Мбит/сек
    Название фильма : Рик и Морти / Rick and Morty (2013) S01E01 Пилот / Pilot
    Дата кодирования : UTC 2018-03-16 13:45:45
    Программа кодирования : mkvmerge v21.0.0 ('Tardigrades Will Inherit The Earth') 64-bit
    Библиотека кодирования : libebml v1.3.5 + libmatroska v1.4.8
    Обложка : Yes
    Attachments : cover.jpg
    Видео
    Идентификатор : 1
    Формат : VC-1
    Профиль формата : Advanced@L3
    Идентификатор кодека : V_MS/VFW/FOURCC / WVC1
    Идентификатор кодека/Подсказка : Microsoft
    Продолжительность : 22 м. 1 с.
    Битрейт : 15,0 Мбит/сек
    Ширина : 1920 пикселей
    Высота : 1080 пикселей
    Соотношение сторон : 16:9
    Режим частоты кадров : Постоянный
    Частота кадров : 23,976 (24000/1001) кадра/сек
    Цветовое пространство : YUV
    Субдискретизация насыщенности : 4:2:0
    Битовая глубина : 8 бит
    Тип развёртки : Прогрессивная
    Метод сжатия : С потерями
    Бит/(Пиксели*Кадры) : 0.301
    Размер потока : 2,30 Гбайт (75%)
    Заголовок : VC-1 @ 14980 kbps
    Язык : English
    Default : Да
    Forced : Нет
    Аудио #1
    Идентификатор : 2
    Формат : DTS
    Формат/Информация : Digital Theater Systems
    Профиль формата : MA / Core
    Идентификатор кодека : A_DTS
    Продолжительность : 22 м. 1 с.
    Вид битрейта : Переменный / Постоянный
    Битрейт : 2429 Кбит/сек / 1509 Кбит/сек
    Каналы : 6 каналов
    Расположение каналов : Front: L C R, Side: L R, LFE
    Частота : 48,0 КГц
    Частота кадров : 93,750 кадра/сек (512 SPF)
    Битовая глубина : 16 бит
    Метод сжатия : Без потерь / Lossy
    Размер потока : 383 Мбайт (12%)
    Заголовок : DTS-HD MA 5.1 @ 2429 kbps - Одноголосый закадровый, Сыендук
    Язык : Russian
    Default : Да
    Forced : Нет
    Аудио #2
    Идентификатор : 3
    Формат : TrueHD
    Идентификатор кодека : A_TRUEHD
    Продолжительность : 22 м. 1 с.
    Вид битрейта : Переменный
    Битрейт : 2190 Кбит/сек
    Максимальный битрейт : 3207 Кбит/сек
    Каналы : 6 каналов
    Расположение каналов : Front: L C R, Side: L R, LFE
    Частота : 48,0 КГц
    Частота кадров : 1200,000 кадров/сек (40 SPF)
    Метод сжатия : Без потерь
    Размер потока : 345 Мбайт (11%)
    Заголовок : TrueHD 5.1 @ 2190 Kbps
    Язык : English
    Default : Нет
    Forced : Нет
    Аудио #3
    Идентификатор : 4
    Формат : AC-3
    Формат/Информация : Audio Coding 3
    Идентификатор кодека : A_AC3
    Продолжительность : 22 м. 1 с.
    Вид битрейта : Постоянный
    Битрейт : 192 Кбит/сек
    Каналы : 2 канала
    Расположение каналов : Front: L R
    Частота : 48,0 КГц
    Частота кадров : 31,250 кадров/сек (1536 SPF)
    Битовая глубина : 16 бит
    Метод сжатия : С потерями
    Размер потока : 30,2 Мбайт (1%)
    Заголовок : AC3 2.0 @ 192 Kbps - Commentary with Dan Harmon, Justin Roiland and Ryan Elder
    Язык : English
    ServiceKind/String : Complete Main
    Default : Нет
    Forced : Нет
    Текст #1
    Идентификатор : 5
    Формат : PGS
    Режим смешивания : zlib
    Идентификатор кодека : S_HDMV/PGS
    Идентификатор кодека/Информация : Picture based subtitle format used on BDs/HD-DVDs
    Продолжительность : 21 м. 32 с.
    Битрейт : 67,5 Кбит/сек
    ElementCount : 686
    Размер потока : 10,4 Мбайт (0%)
    Заголовок : PGS - Full - Netflix
    Язык : Russian
    Default : Нет
    Forced : Нет
    Текст #2
    Идентификатор : 6
    Формат : PGS
    Режим смешивания : zlib
    Идентификатор кодека : S_HDMV/PGS
    Идентификатор кодека/Информация : Picture based subtitle format used on BDs/HD-DVDs
    Продолжительность : 21 м. 55 с.
    Битрейт : 79,2 Кбит/сек
    ElementCount : 1438
    Размер потока : 12,4 Мбайт (0%)
    Заголовок : PGS - Full SDH
    Язык : English
    Default : Нет
    Forced : Нет
    Меню
    00:00:00.000 : en:Chapter 1
    00:02:07.959 : en:Chapter 2
    00:02:39.824 : en:Chapter 3
    00:08:35.346 : en:Chapter 4
    00:21:35.461 : en:Chapter 5

    Скриншоты

    НЕ рекомендуется для семейного просмотра с детьми.
    [cybertorrent.ru].t41585.torrent 
    Торрент: Зарегистрирован [ 2018-03-19 15:15 ] · C925FDBCFD2CC70D2E9CB4BCFF060A201F30CAF0

    Скачать .torrent

    Скачать

    87 KB

    Статус: проверено
    Скачан: 0 раз
    Размер: 34,19 GB
  • Профиль [ЛС]
    Показать сообщения:    

    Текущее время: 22-Апр 23:36

    Часовой пояс: UTC ± 0



    Вы не можете начинать темы
    Вы не можете отвечать на сообщения
    Вы не можете редактировать свои сообщения
    Вы не можете удалять свои сообщения
    Вы не можете голосовать в опросах
    Вы не можете прикреплять файлы к сообщениям
    Вы можете скачивать файлы