Статистика раздачи
Размер:  4,45 GB   |    Зарегистрирован:  1 месяц 4 дня   |    Скачан:  0 раз

Полного источника не было: Никогда

 
   
 
 

Виктория ®

Пол:
Не указан
Стаж:
2 месяца 8 дней
Сообщений:
398

Вестсайдская история / West Side Story- Страна: США
Жанр: мюзикл, драма, мелодрама, криминал
Год выпуска: 1961
Продолжительность: 02:33:43
Перевод 1: Профессиональный (многоголосый закадровый) BD EUR
Перевод 2: Профессиональный (многоголосый закадровый) DVD Магия
Перевод 3: Профессиональный (многоголосый закадровый) HTB+
Субтитры: русские, английские
Оригинальная аудиодорожка: английский
Режиссер: Джером Роббинс / Jerome Robbins, Роберт Уайз / Robert Wise
В ролях: Натали Вуд, Ричард Беймер, Расс Тэмблин, Рита Морено, Джордж Чакирис, Саймон Оукленд, Нед Глэсс, Уильям Брэмли, Такер Смит, Тони Морденте и др.
Описание: Сюжет построен на бессмертной истории Ромео и Джульетты, развернутой на новый лад. На улицах Манхэттена ведут беспощадную войну за жизненное пространство две уличных банды, Джеты и Акулы. Тони - член банды Джетов и лучший друг главаря Риффа.
Смуглянка Мария - сестра предводителя пуэрториканцев Акул. Тони и Мария влюбляются друг в друга вопреки ненависти друзей и родственников, и их любовь заканчивается трагически...
Сэмпл: http://sendfile.su/1404579

Качество видео: BDRip-AVC (Вестсайдская история 1961 Blu-Ray disc 1080p[EUR])
Формат видео: MKV
Видео: x264, 1008x460 (2.2:1) 23,976 fps, ~2610 kbps, 0,235 bit/pixel
Аудио 1: 48 kHz, AC3 Dolby Digital, 3/2 (L,C,R,l,r) + LFE ch, ~448 kbps | BD EUR
Аудио 2: 48 kHz, AC3 Dolby Digital, 3/2 (L,C,R,l,r) + LFE ch, ~448 kbps | Английский
---------------------------------------отдельно---------------------------------------------------
Аудио 3: 48 kHz, AC3 Dolby Digital, 3/2 (L,C,R,l,r) + LFE ch, ~448 kbps | DVD Магия
Аудио 4: 48 kHz, AC3 Dolby Digital, 2/0 (L,R), ~192 kbps avg | HTB+
Формат субтитров: softsub (SRT)

MediaInfo

General
Unique ID : 337542323229540112248133017931398574798 (0xFDF0496A73BF0D7EAEF3E53C08A4F2CE)
Format : Matroska
Format version : Version 4 / Version 2
File size : 3.77 GiB
Duration : 2h 33mn
Overall bit rate : 3 508 Kbps
Encoded date : UTC 2018-03-08 15:58:00
Writing application : mkvmerge v21.0.0 ('Tardigrades Will Inherit The Earth') 64-bit
Writing library : libebml v1.3.5 + libmatroska v1.4.8
Video #1
ID : 1
Format : AVC
Format/Info : Advanced Video Codec
Format profile : High@L4.1
Format settings, CABAC : Yes
Format settings, ReFrames : 12 frames
Codec ID : V_MPEG4/ISO/AVC
Duration : 2h 33mn
Bit rate : 2 610 Kbps
Width : 1 008 pixels
Height : 460 pixels
Display aspect ratio : 2.2:1
Frame rate mode : Constant
Frame rate : 23.976 (24000/1001) fps
Color space : YUV
Chroma subsampling : 4:2:0
Bit depth : 8 bits
Scan type : Progressive
Bits/(Pixel*Frame) : 0.235
Stream size : 2.80 GiB (74%)
Writing library : x264 core 152 r2851 ba24899
Encoding settings : cabac=1 / ref=12 / deblock=1:-3:-2 / analyse=0x3:0x133 / me=umh / subme=10 / psy=1 / psy_rd=1.00:0.00 / mixed_ref=1 / me_range=32 / chroma_me=1 / trellis=2 / 8x8dct=1 / cqm=0 / deadzone=21,11 / fast_pskip=0 / chroma_qp_offset=-2 / threads=6 / lookahead_threads=1 / sliced_threads=0 / nr=0 / decimate=1 / interlaced=0 / bluray_compat=0 / constrained_intra=0 / bframes=13 / b_pyramid=2 / b_adapt=2 / b_bias=0 / direct=1 / weightb=1 / open_gop=0 / weightp=2 / keyint=250 / keyint_min=23 / scenecut=40 / intra_refresh=0 / rc=crf / mbtree=0 / crf=18.4 / qcomp=0.65 / qpmin=0 / qpmax=69 / qpstep=4 / ip_ratio=1.40 / pb_ratio=1.30 / aq=3:0.90
Language : English
Default : Yes
Forced : No
Audio #2
ID : 2
Format : AC-3
Format/Info : Audio Coding 3
Mode extension : CM (complete main)
Format settings, Endianness : Big
Codec ID : A_AC3
Duration : 2h 33mn
Bit rate mode : Constant
Bit rate : 448 Kbps
Channel(s) : 6 channels
Channel positions : Front: L C R, Side: L R, LFE
Sampling rate : 48.0 KHz
Frame rate : 31.250 fps (1536 spf)
Compression mode : Lossy
Stream size : 493 MiB (13%)
Language : Russian
Default : Yes
Forced : No
Audio #3
ID : 3
Format : AC-3
Format/Info : Audio Coding 3
Mode extension : CM (complete main)
Format settings, Endianness : Big
Codec ID : A_AC3
Duration : 2h 33mn
Bit rate mode : Constant
Bit rate : 448 Kbps
Channel(s) : 6 channels
Channel positions : Front: L C R, Side: L R, LFE
Sampling rate : 48.0 KHz
Frame rate : 31.250 fps (1536 spf)
Compression mode : Lossy
Stream size : 493 MiB (13%)
Language : English
Default : No
Forced : No
Text #4
ID : 4
Format : UTF-8
Codec ID : S_TEXT/UTF8
Codec ID/Info : UTF-8 Plain Text
Duration : 2h 26mn
Bit rate : 65 bps
Count of elements : 1813
Stream size : 70.6 KiB (0%)
Language : Russian
Default : No
Forced : No
Text #5
ID : 5
Format : UTF-8
Codec ID : S_TEXT/UTF8
Codec ID/Info : UTF-8 Plain Text
Duration : 2h 26mn
Bit rate : 49 bps
Count of elements : 1813
Stream size : 52.7 KiB (0%)
Language : English
Default : No
Forced : No

лог

raw [info]: 1008x460p 1:1 @ 24000/1001 fps (cfr)
x264 [info]: using SAR=1/1
x264 [info]: using cpu capabilities: MMX2 SSE2Fast SSSE3 SSE4.2 AVX XOP FMA3 BMI1
x264 [info]: profile High, level 4.1
x264 [info]: frame I:1329 Avg QP:17.42 size: 77829
x264 [info]: frame P:42810 Avg QP:19.22 size: 30128
x264 [info]: frame B:176997 Avg QP:21.37 size: 9128
x264 [info]: consecutive B-frames: 0.8% 0.6% 3.7% 25.2% 19.3% 30.7% 7.7% 4.2% 2.4% 1.5% 0.9% 1.0% 0.5% 1.5%
x264 [info]: mb I I16..4: 2.8% 73.5% 23.7%
x264 [info]: mb P I16..4: 0.2% 8.1% 1.9% P16..4: 36.9% 26.3% 22.4% 1.3% 0.4% skip: 2.5%
x264 [info]: mb B I16..4: 0.0% 0.7% 0.2% B16..8: 39.2% 13.4% 4.9% direct: 6.4% skip:35.2% L0:44.2% L1:40.1% BI:15.7%
x264 [info]: 8x8 transform intra:77.4% inter:56.1%
x264 [info]: coded y,uvDC,uvAC intra: 95.7% 85.9% 65.9% inter: 27.6% 18.3% 3.2%
x264 [info]: i16 v,h,dc,p: 50% 12% 11% 28%
x264 [info]: i8 v,h,dc,ddl,ddr,vr,hd,vl,hu: 12% 8% 9% 9% 13% 14% 12% 12% 12%
x264 [info]: i4 v,h,dc,ddl,ddr,vr,hd,vl,hu: 12% 6% 3% 10% 15% 17% 13% 13% 12%
x264 [info]: i8c dc,h,v,p: 40% 21% 22% 16%
x264 [info]: Weighted P-Frames: Y:17.4% UV:9.3%
x264 [info]: ref P L0: 40.6% 11.9% 16.7% 6.8% 6.1% 4.1% 4.1% 2.1% 2.2% 1.7% 1.8% 1.6% 0.2% 0.0%
x264 [info]: ref B L0: 67.2% 12.0% 6.6% 3.7% 2.8% 2.4% 2.0% 1.3% 1.1% 0.7% 0.3%
x264 [info]: ref B L1: 93.4% 6.6%
x264 [info]: kb/s:2609.87
x264 [total]: encoded 221136 frames, 7.02 fps, 2609.87 kb/s

Скриншоты


[cybertorrent.ru].t41588.torrent 
Торрент: Зарегистрирован [ 2018-03-19 15:15 ] · EE7900486C1AABA70315C855E4B4542906B90B35

Скачать .torrent

Скачать

12 KB

Статус: проверено
Скачан: 0 раз
Размер: 4,45 GB
Профиль [ЛС]
Показать сообщения:    

Текущее время: 24-Апр 04:46

Часовой пояс: UTC ± 0



Вы не можете начинать темы
Вы не можете отвечать на сообщения
Вы не можете редактировать свои сообщения
Вы не можете удалять свои сообщения
Вы не можете голосовать в опросах
Вы не можете прикреплять файлы к сообщениям
Вы можете скачивать файлы