Статистика раздачи
Размер:  308 MB   |    Зарегистрирован:  1 месяц 5 дней   |    Скачан:  0 раз

Полного источника не было: Никогда

 
   
 
 

MaX ®

Пол:
Не указан
Стаж:
2 месяца 6 дней
Сообщений:
103

Igor Stravinsky: Later Ballets (Jeu de cartes / Danses concertantes / Scènes de Ballet / Variations (Aldous Huxley in memoriam) / Capriccio for Piano and Orchestra)
Игорь Стравинский: Поздние балеты (Игра в карты / Концертные танцы / Балетные сцены / Вариации памяти Олдоса Хаксли / Каприччио для фортепиано с оркестром)
Жанр: Classical, modern
Страна-производитель диска: EU
Год издания диска: 2007
Издатель (лейбл): Naxos
Номер по каталогу: 8.557506
Дата записи: 1991-1999
Аудиокодек: FLAC
Тип рипа: image+.cue
Битрейт аудио: lossless
Продолжительность: 01:19:05
Источник: собственный рип
Наличие сканов в содержимом раздачи: да
Треклист:
Jeu de cartes (1935-1936)
01. First Deal - 05:26
02. Second Deal - 09:25
03. Third Deal - 08:01
Danses concertantes (1941-1942)
04. Marche - Introduction - 01:51
05. Pas d'action - Con moto - 03:20
06. Thème varié: Lento with four variation and Coda (Allegretto - Scherzando - Andantino - Tempo giocoso) - 07:51
07. Pas-de-deux: Risoluto - Andante sostenuto - 04:45
08. Marche - Conclusion - 01:01
Scènes de Ballet (1944)
09. Introduction: Andante - 00:39
10. Danses (Corps de Ballet): Moderato - 02:52
11. Variations (Ballerina): Con moto - 00:53
12. Pantomime: Lento, Andantino, Più mosso - Pas-de-deux: Adagio - 04:21
13. Pantomime: Agitato - 00:30
14. Variation: Risoluto - Variation (Ballerina): Andantino - Pantomime: Andantino - Danses (Corps de Ballet) - 03:19
15. Apothéose - 01:56
16. Variations (Aldous Huxley in memoriam) (1963-1964) - 05:53
Capriccio for Piano and Orchestra (Rubies from the ballet Jewels) (1929)
17. Allegro - 06:18
18. Andante rapsodico - 05:01
19. Allegro capriccioso - 05:42
Исполнители:
Tracks 1-3: оркестр Philharmonia Orchestra п/у Robert Craft
Tracks 4-8: ансамбль Twentieth Century Classics Ensemble п/у Robert Craft
Tracks 9-15: оркестр Orchestra of St. Luke's п/у Robert Craft
Track 16: оркестр London Philharmonic Orchestra п/у Robert Craft
Tracks 17-19: Mark Wait (фортепиано), оркестр Orchestra of St. Luke's п/у Robert Craft

Лог создания рипа

Exact Audio Copy V1.3 from 2. September 2016
Отчёт EAC об извлечении, выполненном 6. марта 2018, 22:35
Robert Craft (conductor) / Stravinsky: Later Ballets
Дисковод: PIONEER DVD-RW DVR-215D Adapter: 1 ID: 3
Режим чтения : Достоверность
Использование точного потока : Да
Отключение кэша аудио : Да
Использование указателей C2 : Нет
Коррекция смещения при чтении : 48
Способность читать области Lead-in и Lead-out : Нет
Заполнение пропущенных сэмплов тишиной : Да
Удаление блоков с тишиной в начале и конце : Нет
При вычислениях CRC использовались нулевые сэмплы : Да
Интерфейс : Встроенный Win32-интерфейс для Win NT/2000
Выходной формат : Пользовательский кодировщик
Выбранный битрейт : 128 kBit/s
Качество : Высокий
Добавление ID3-тега : Нет
Утилита сжатия : C:\Program Files\Exact Audio Copy\Flac\flac.exe
Дополнительные параметры : -V -8 -T "Date=%year%" -T "Genre=%genre%" %source%
TOC извлечённого CD
Трек | Старт | Длительность | Начальный сектор | Конечный сектор
---------------------------------------------------------------------
1 | 0:00.00 | 5:25.39 | 0 | 24413
2 | 5:25.39 | 9:25.21 | 24414 | 66809
3 | 14:50.60 | 8:00.52 | 66810 | 102861
4 | 22:51.37 | 1:51.08 | 102862 | 111194
5 | 24:42.45 | 3:20.35 | 111195 | 126229
6 | 28:03.05 | 7:50.53 | 126230 | 161532
7 | 35:53.58 | 4:44.59 | 161533 | 182891
8 | 40:38.42 | 1:01.10 | 182892 | 187476
9 | 41:39.52 | 0:39.33 | 187477 | 190434
10 | 42:19.10 | 2:52.26 | 190435 | 203360
11 | 45:11.36 | 0:53.31 | 203361 | 207366
12 | 46:04.67 | 4:21.11 | 207367 | 226952
13 | 50:26.03 | 0:29.52 | 226953 | 229179
14 | 50:55.55 | 3:18.39 | 229180 | 244068
15 | 54:14.19 | 1:56.16 | 244069 | 252784
16 | 56:10.35 | 5:52.68 | 252785 | 279252
17 | 62:03.28 | 6:18.34 | 279253 | 307636
18 | 68:21.62 | 5:01.11 | 307637 | 330222
19 | 73:22.73 | 5:42.02 | 330223 | 355874
Характеристики диапазона извлечения и сообщения об ошибках
Выбранный диапазон
Имя файла C:\Stravinsky - Later Ballets (Robert Craft collection).wav
Пиковый уровень 98.8 %
Скорость извлечения 7.8 X
Качество диапазона 100.0 %
CRC теста 2DB760E0
CRC копии 2DB760E0
Копирование... OK
Ошибок не произошло
AccurateRip: сводка
Трек 1 : извлечено точно (доверие 4) [268A83C6] (AR v2)
Трек 2 : извлечено точно (доверие 4) [7848752D] (AR v2)
Трек 3 : извлечено точно (доверие 4) [6B331286] (AR v2)
Трек 4 : извлечено точно (доверие 4) [A8D69544] (AR v2)
Трек 5 : извлечено точно (доверие 4) [6A6C6ED7] (AR v2)
Трек 6 : извлечено точно (доверие 4) [6CFC9398] (AR v2)
Трек 7 : извлечено точно (доверие 4) [03E4820B] (AR v2)
Трек 8 : извлечено точно (доверие 4) [E23529CF] (AR v2)
Трек 9 : извлечено точно (доверие 4) [909022C3] (AR v2)
Трек 10 : извлечено точно (доверие 4) [381A4610] (AR v2)
Трек 11 : извлечено точно (доверие 4) [552CE8E1] (AR v2)
Трек 12 : извлечено точно (доверие 4) [83215705] (AR v2)
Трек 13 : извлечено точно (доверие 4) [132B2C90] (AR v2)
Трек 14 : извлечено точно (доверие 4) [1B683A91] (AR v2)
Трек 15 : извлечено точно (доверие 4) [A8E57DE2] (AR v2)
Трек 16 : извлечено точно (доверие 4) [D915B0A0] (AR v2)
Трек 17 : извлечено точно (доверие 4) [1BE522C1] (AR v2)
Трек 18 : извлечено точно (доверие 4) [CE717F84] (AR v2)
Трек 19 : извлечено точно (доверие 4) [7F11C792] (AR v2)
Все треки извлечены точно
Конец отчёта
---- CUETools DB Plugin V2.1.6
[CTDB TOCID: GW4XnnGedz03ftYSZD2TdcTDdxA-] found
Submit result: GW4XnnGedz03ftYSZD2TdcTDdxA- has been confirmed
Track | CTDB Status
1 | (9/9) Accurately ripped
2 | (9/9) Accurately ripped
3 | (9/9) Accurately ripped
4 | (9/9) Accurately ripped
5 | (9/9) Accurately ripped
6 | (9/9) Accurately ripped
7 | (9/9) Accurately ripped
8 | (9/9) Accurately ripped
9 | (9/9) Accurately ripped
10 | (9/9) Accurately ripped
11 | (9/9) Accurately ripped
12 | (9/9) Accurately ripped
13 | (9/9) Accurately ripped
14 | (9/9) Accurately ripped
15 | (9/9) Accurately ripped
16 | (9/9) Accurately ripped
17 | (9/9) Accurately ripped
18 | (9/9) Accurately ripped
19 | (9/9) Accurately ripped
==== Контрольная сумма отчёта DEE8FFDF01BECF51DE0D0713ACBC436ABFE20540413F7DA024E1E7F6849BEB7B ====

Лог проверки качества

AUDIOCHECKER v2.0 beta (build 457) - by Dester - opdester@freemail.hu
~~~~~~~~~~~~~~~~~~~~~~~~~~~~~~~~~~
Started at: четверг, 08. 03. 2018. - 20:55.00
1 file found
1 -===- G:\_torrents_\Stravinsky - Later Ballets (Robert Craft collection, 2007)\Stravinsky - Later Ballets (Robert Craft collection).flac
Extracted successfully
Conclusion: this track is CDDA with probability 99%
Tempfile successfully deleted.
Finished at: четверг, 08. 03. 2018. - 21:04.53 (operation time: 0:09.52)

Скриншот спектра частот

Доп. информация: Записано в студии Abbey Road Studio No. 1, Лондон, 16-17 января 1998 г. (Jeu de cartes); в колледже State University of New York (SUNY) at Purchase, Нью-Йорк, в 1999 г. (Danses concertantes), 1991 г. (Scènes de Ballet) и 12 апреля 1994 г. (Capriccio for Piano and Orchestra); в Henry Wood Hall, Лондон, 20 апреля 1996 г. (Variations).
Издание из серии Robert Craft collection (Stravinsky, Vol. IX).
[cybertorrent.ru].t41589.torrent 
Торрент: Зарегистрирован [ 2018-03-19 15:15 ] · 72CE3B4FB0D50F0DA319B6EEE1652912D5A42848

Скачать .torrent

Скачать

26 KB

Статус: проверено
Скачан: 0 раз
Размер: 308 MB
Профиль [ЛС]
Показать сообщения:    

Текущее время: 24-Апр 18:20

Часовой пояс: UTC ± 0



Вы не можете начинать темы
Вы не можете отвечать на сообщения
Вы не можете редактировать свои сообщения
Вы не можете удалять свои сообщения
Вы не можете голосовать в опросах
Вы не можете прикреплять файлы к сообщениям
Вы можете скачивать файлы