Статистика раздачи
Размер:  31,76 GB   |    Зарегистрирован:  3 месяца 29 дней   |    Скачан:  0 раз

Полного источника не было: Никогда

 
   
 
 

Virtuoz ®

Пол:
Не указан
Стаж:
5 месяцев 2 дня
Сообщений:
98

Инуясики / Inuyashiki
Год выпуска: 2017
Страна: Япония
Жанр: приключения, фантастика, драма, сэйнэн
Тип: TV
Продолжительность: 11 эп. по 24 мин.
Озвучка:
  • Двухголосая (муж/жен) от Dejz & Amikiri (AniLibria)
  • Многоголосая от Татьяна Борзова & Ирина Зиновкина & Сергей Кубасян & Анна Мосолова & Давид Петросян & Полина Ртищева & Александр Русаков & Влад Токарев (Студийная Банда)
    Русские субтитры: есть (отдельным файлом, формат .ass)
    Перевод:
  • Бульбазавр, Dark Nogard, SYMRAK [Bazaar Zetsubou]
    Хардсаб: Нет-Режиссер: Сато Кэйити
    Студия: MAPPA
    Описание: История о двух совершенно разных людях, волею судьбы оказавшихся связанными друг с другом. Ичиро Инуяшики - 58-летний бизнесмен, но из-за напряжённой жизни и кучи потраченных нервных клеток, он выглядит гораздо старше. Но рак - болезнь без возраста, она не щадит никого. Поэтому, когда Ичиро узнал, что болен, он впал в депрессию. Уже перестав бороться, он решил доживать остаток своих дней, но внезапно оказался свидетелем крушения НЛО, и это событие внезапно подарило ему новую жизнь. Ичиро переродился в механическом теле и получил сверхспособности. После этого чуда, Ичиро решил посвятить свою жизнь помощи людям.
    Есть и другой человек, полная противоположность Ичиро. Зовут его Хиро Шишигами. Он молод и полон сил, учится в старшей школе. Без ума любит свою маму и лучшего друга, но к остальным людям не испытывает совершенно никакого сочувствия. Как и Ичиро, Хиро видит НЛО и тоже получает механическое тело. Но, в отличие от бизнесмена, школьник решает потратить свои способности на преступления, видя боль других людей, он чувствует себя живым. Что же победит: добро или зло?
    Качество: Blu-Ray Remux
    Формат: MKV
    Видео кодек: AVC
    Аудио кодек: FLAC
    Видео: 1920x1080 (16:9) 23,976 fps ~36 Mbps 8bit
    Аудио:
    Jap FLAC, 48000Hz, ~1485 Kbps, 2ch
    RUS 1-2 (ext) AAC, 48000Hz, ~192 Kbps, 2ch
    Чаптеры присутствуют.

    Список эпизодов

    01. Ичиро Инуясики
    02. Хиро Сисигами
    03. Науоюки Андо
    04. Самэдзима
    05. Юко Сисигами

    06. Задроты Двача
    07. Сион Ватанабэм
    08. Мари Инуясики
    09. Люди Синдзюку
    10. Жители Токио
    11. Земляне

    MediaInfo

    Общее
    Уникальный идентификатор : 68676281311920805827539041976657706485 (0x33AA92171642B300EA18C225DEE0FDF5)
    Полное имя : Z:\Anime Release - working\Inuyashiki\[anti-raws]Inuyashiki ep.01[BDRemux].mkv
    Формат : Matroska
    Версия формата : Version 4 / Version 2
    Размер файла : 6,14 Гбайт
    Продолжительность : 22 м. 54 с.
    Режим общего битрейта : Переменный
    Общий поток : 38,4 Мбит/сек
    Дата кодирования : UTC 2018-03-09 11:35:14
    Программа кодирования : mkvmerge v20.0.0 ('I Am The Sun') 64-bit
    Библиотека кодирования : libebml v1.3.5 + libmatroska v1.4.8
    Видео
    Идентификатор : 2
    Формат : AVC
    Формат/Информация : Advanced Video Codec
    Профиль формата : High@L4.1
    Настройки формата : CABAC / 4 Ref Frames
    Параметр CABAC формата : Да
    Параметр RefFrames формата : 4 кадра
    Идентификатор кодека : V_MPEG4/ISO/AVC
    Продолжительность : 22 м. 54 с.
    Вид битрейта : Переменный
    Битрейт : 36,9 Мбит/сек
    Максимальный битрейт : 39,0 Мбит/сек
    Ширина : 1920 пикселей
    Высота : 1080 пикселей
    Соотношение сторон : 16:9
    Режим частоты кадров : Постоянный
    Частота кадров : 23,976 (24000/1001) кадра/сек
    Цветовое пространство : YUV
    Субдискретизация насыщенности : 4:2:0
    Битовая глубина : 8 бит
    Тип развёртки : Прогрессивная
    Бит/(Пиксели*Кадры) : 0.742
    Размер потока : 5,90 Гбайт (96%)
    Default : Нет
    Forced : Нет
    Аудио
    Идентификатор : 1
    Формат : FLAC
    Формат/Информация : Free Lossless Audio Codec
    Идентификатор кодека : A_FLAC
    Продолжительность : 22 м. 54 с.
    Вид битрейта : Переменный
    Битрейт : 1484 Кбит/сек
    Каналы : 2 канала
    Расположение каналов : Front: L R
    Частота : 48,0 КГц
    Частота кадров : 11,719 кадров/сек (4096 SPF)
    Битовая глубина : 24 бит
    Размер потока : 243 Мбайт (4%)
    Библиотека кодирования : libFLAC 1.2.1 (UTC 2007-09-17)
    Язык : Japanese
    Default : Да
    Forced : Нет
    Меню
    00:00:00.000 : en:00:00:00.000
    00:01:31.049 : en:00:01:31.049
    00:13:51.956 : en:00:13:51.956
    00:21:23.032 : en:00:21:23.032

    Скриншоты

    Отличия от существующих раздач

    http://cybertorrent.ru/viewtopic.php?t=5465447
    --HDTVRip
    http://cybertorrent.ru/viewtopic.php?t=5468729
    http://cybertorrent.ru/viewtopic.php?t=5469258
    --WEBRip
    Эта раздача - BDRemux
    [cybertorrent.ru].t41591.torrent 
    Торрент: Зарегистрирован [ 2018-03-19 15:15 ] · 3B075261E796A7F293344F79EC73B564D29FA04F

    Скачать .torrent

    Скачать

    42 KB

    Статус: проверено
    Скачан: 0 раз
    Размер: 31,76 GB
  • Профиль [ЛС]
    Показать сообщения:    

    Текущее время: 17-Июл 19:08

    Часовой пояс: UTC ± 0



    Вы не можете начинать темы
    Вы не можете отвечать на сообщения
    Вы не можете редактировать свои сообщения
    Вы не можете удалять свои сообщения
    Вы не можете голосовать в опросах
    Вы не можете прикреплять файлы к сообщениям
    Вы можете скачивать файлы