Статистика раздачи
Размер:  271 MB   |    Зарегистрирован:  1 месяц 5 дней   |    Скачан:  0 раз

Полного источника не было: Никогда

Личеров:  1  [  0 KB/s  ]  
 
   
 
 

dash ®

Пол:
Не указан
Стаж:
2 месяца 6 дней
Сообщений:
121

J.S.Bach - 3 Sonaten fur Viola da Gamba und cembalo BWV 1027, BWV 1028, BWV 1029
Жанр: Classical chamber
Страна-производитель диска: Made in Germany
Год издания диска: 1989
Издатель (лейбл): Deutsche Harmonia Mundi
Номер по каталогу: GD77044
Дата записи: 1974
Аудиокодек: FLAC
Тип рипа: image+.cue
Битрейт аудио: lossless
Продолжительность: 46'26
Источник: релизер
сайт-источник/ник/другое: makdelart
Наличие сканов в содержимом раздачи: да
Треклист:
Sonate/Sonata, BWV 1027 G-Dur/G Major
1 Adagio 4:03
2 Allegro Ma Non Tanto 3:58
3 Andante 2:49
4 Allegro Moderato 3:17
Sonate/Sonata, BWV 1028 D-Dur/D-Major
5 Adagio 2:01
6 Allegro 4:02
7 Andante 5:21
8 Allegro 4:23
Sonate/Sonata, BWV 1029 G-Moll/G Minor
9 Vivace 5:26
10 Adagio 6:47
11 Allegro 3:55

Исполнители

Johann Sebastian Bach (1685-1750)
3 Sonaten für Viola da Gamba und cembalo BWV 1027, BWV 1028, BWV 1029
Harpsichord – Gustav Leonhardt
Viola da Gamba – Wieland Kuijken
Recorded in 1974, digital remastering 1987

Лог создания рипа

Exact Audio Copy V1.3 from 2. September 2016
EAC extraction logfile from 11. February 2018, 22:51
Wieland Kuijken, Gustav Leonhardt / Bach: 3 Sonatas for Viola da Gamba & Harpsichord
Used drive : LENOVO USB_SATA_Burner4 Adapter: 0 ID: 0
Read mode : Secure
Utilize accurate stream : Yes
Defeat audio cache : Yes
Make use of C2 pointers : No
Read offset correction : 6
Overread into Lead-In and Lead-Out : No
Fill up missing offset samples with silence : Yes
Delete leading and trailing silent blocks : No
Null samples used in CRC calculations : Yes
Used interface : Installed external ASPI interface
Used output format : User Defined Encoder
Selected bitrate : 1024 kBit/s
Quality : High
Add ID3 tag : No
Command line compressor : C:\Program Files (x86)\Exact Audio Copy\FLAC\FLAC.EXE
Additional command line options : -8 -V -T "TITLE=%title%" -T "ARTIST=%artist%" -T "ALBUMARTIST=%albumartist%" -T "ALBUM=%albumtitle%" -T "DATE=%year%" -T "TRACKNUMBER=%tracknr%" -T "TRACKTOTAL=%numtracks%" -T "GENRE=%genre%" -T "COMMENT=%comment%" -T "PERFORMER=%albuminterpret%" -T "COMPOSER=%composer%" %source% -o %dest%
TOC of the extracted CD
Track | Start | Length | Start sector | End sector
---------------------------------------------------------
1 | 0:00.00 | 4:03.37 | 0 | 18261
2 | 4:03.37 | 3:58.03 | 18262 | 36114
3 | 8:01.40 | 2:49.40 | 36115 | 48829
4 | 10:51.05 | 3:22.17 | 48830 | 63996
5 | 14:13.22 | 2:01.23 | 63997 | 73094
6 | 16:14.45 | 4:07.22 | 73095 | 91641
7 | 20:21.67 | 5:23.30 | 91642 | 115896
8 | 25:45.22 | 4:27.28 | 115897 | 135949
9 | 30:12.50 | 5:30.55 | 135950 | 160754
10 | 35:43.30 | 6:47.60 | 160755 | 191339
11 | 42:31.15 | 3:57.10 | 191340 | 209124
Range status and errors
Selected range
Filename C:\EACRip\Bach - 3 Sonatas for Viola da Gamba and Harpsichord (W.Kuijken, G.Leonhardt)(1974, 1989edition)\Bach - 3 Sonatas for Viola da Gamba & Harpsichord - Wieland Kuijken, Gustav Leonhardt.wav
Peak level 93.8 %
Extraction speed 1.7 X
Range quality 100.0 %
Test CRC 335C8BE4
Copy CRC 335C8BE4
Copy OK
No errors occurred
AccurateRip summary
Track 1 cannot be verified as accurate (confidence 4) [F0C8B4A1], AccurateRip returned [B9BA129E] (AR v2)
Track 2 cannot be verified as accurate (confidence 4) [0A7BE9AE], AccurateRip returned [3B892F23] (AR v2)
Track 3 cannot be verified as accurate (confidence 4) [ADC5AFD4], AccurateRip returned [41B27928] (AR v2)
Track 4 cannot be verified as accurate (confidence 4) [8DD7158F], AccurateRip returned [A25A2BCE] (AR v2)
Track 5 cannot be verified as accurate (confidence 4) [13CFDE43], AccurateRip returned [4FC1B1AB] (AR v2)
Track 6 cannot be verified as accurate (confidence 4) [8BF22BFC], AccurateRip returned [2A46461B] (AR v2)
Track 7 cannot be verified as accurate (confidence 4) [64FCCC58], AccurateRip returned [D6A02B5A] (AR v2)
Track 8 cannot be verified as accurate (confidence 4) [7840C44C], AccurateRip returned [D75DF0FE] (AR v2)
Track 9 cannot be verified as accurate (confidence 4) [4F62436D], AccurateRip returned [FDE1B701] (AR v2)
Track 10 cannot be verified as accurate (confidence 4) [B50DAA0F], AccurateRip returned [79974F3E] (AR v2)
Track 11 cannot be verified as accurate (confidence 4) [A6FA48E4], AccurateRip returned [6CD2CFAD] (AR v2)
No tracks could be verified as accurate
You may have a different pressing from the one(s) in the database
End of status report
---- CUETools DB Plugin V2.1.6
[CTDB TOCID: KLgI3uXG7SLlS9A4Kd0v7zD0Cio-] found
Submit result: KLgI3uXG7SLlS9A4Kd0v7zD0Cio- has been confirmed
Track | CTDB Status
1 | (12/12) Accurately ripped
2 | (12/12) Accurately ripped
3 | (12/12) Accurately ripped
4 | (12/12) Accurately ripped
5 | (12/12) Accurately ripped
6 | (12/12) Accurately ripped
7 | (12/12) Accurately ripped
8 | (12/12) Accurately ripped
9 | (12/12) Accurately ripped
10 | (12/12) Accurately ripped
11 | (12/12) Accurately ripped
==== Log checksum EA7453A7C7D26EDABEE3781037C959D6C7DFCA447D572FBE268D16B720803188 ====

Содержание индексной карты (.CUE)

REM GENRE "Chamber Music"
REM DATE 1974
REM DISCID 940AE40B
REM COMMENT "ExactAudioCopy v1.3"
PERFORMER "Wieland Kuijken, Gustav Leonhardt"
TITLE "Bach: 3 Sonatas for Viola da Gamba & Harpsichord"
REM COMPOSER "Johann Sebastian Bach (1685-1750)"
FILE "Bach - 3 Sonatas for Viola da Gamba & Harpsichord - Wieland Kuijken, Gustav Leonhardt.flac" WAVE
TRACK 01 AUDIO
TITLE "Sonata No. 1 in G major, BWV 1027 - I. Adagio"
PERFORMER "Wieland Kuijken, Gustav Leonhardt"
REM COMPOSER "Johann Sebastian Bach (1685-1750)"
INDEX 01 00:00:00
TRACK 02 AUDIO
TITLE "Sonata No. 1 in G major, BWV 1027 - II. Alegro ma non tanto"
PERFORMER "Wieland Kuijken, Gustav Leonhardt"
REM COMPOSER "Johann Sebastian Bach (1685-1750)"
INDEX 01 04:03:37
TRACK 03 AUDIO
TITLE "Sonata No. 1 in G major, BWV 1027 - III. Andante"
PERFORMER "Wieland Kuijken, Gustav Leonhardt"
REM COMPOSER "Johann Sebastian Bach (1685-1750)"
INDEX 01 08:01:40
TRACK 04 AUDIO
TITLE "Sonata No. 1 in G major, BWV 1027 - IV. Allegro moderato"
PERFORMER "Wieland Kuijken, Gustav Leonhardt"
REM COMPOSER "Johann Sebastian Bach (1685-1750)"
INDEX 01 10:51:05
TRACK 05 AUDIO
TITLE "Sonata No. 2 in D major, BWV 1028 - I. Adagio"
PERFORMER "Wieland Kuijken, Gustav Leonhardt"
REM COMPOSER "Johann Sebastian Bach (1685-1750)"
INDEX 00 14:08:70
INDEX 01 14:13:22
TRACK 06 AUDIO
TITLE "Sonata No. 2 in D major, BWV 1028 - II. Allegro"
PERFORMER "Wieland Kuijken, Gustav Leonhardt"
REM COMPOSER "Johann Sebastian Bach (1685-1750)"
INDEX 01 16:14:45
TRACK 07 AUDIO
TITLE "Sonata No. 2 in D major, BWV 1028 - III. Andante"
PERFORMER "Wieland Kuijken, Gustav Leonhardt"
REM COMPOSER "Johann Sebastian Bach (1685-1750)"
INDEX 00 20:17:30
INDEX 01 20:21:67
TRACK 08 AUDIO
TITLE "Sonata No. 2 in D major, BWV 1028 - IV. Allegro"
PERFORMER "Wieland Kuijken, Gustav Leonhardt"
REM COMPOSER "Johann Sebastian Bach (1685-1750)"
INDEX 00 25:43:17
INDEX 01 25:45:22
TRACK 09 AUDIO
TITLE "Sonata No. 3 in G minor, BWV 1029 - I. Vivace"
PERFORMER "Wieland Kuijken, Gustav Leonhardt"
REM COMPOSER "Johann Sebastian Bach (1685-1750)"
INDEX 00 30:09:10
INDEX 01 30:12:50
TRACK 10 AUDIO
TITLE "Sonata No. 3 in G minor, BWV 1029 - II. Adagio"
PERFORMER "Wieland Kuijken, Gustav Leonhardt"
REM COMPOSER "Johann Sebastian Bach (1685-1750)"
INDEX 00 35:39:12
INDEX 01 35:43:30
TRACK 11 AUDIO
TITLE "Sonata No. 3 in G minor, BWV 1029 - III. Allegro"
PERFORMER "Wieland Kuijken, Gustav Leonhardt"
REM COMPOSER "Johann Sebastian Bach (1685-1750)"
INDEX 01 42:31:15
[cybertorrent.ru].t41593.torrent 
Торрент: Зарегистрирован [ 2018-03-19 15:15 ] · 47997C67AA28DD946CA074EC6596A64A154D3B53

Скачать .torrent

Скачать

12 KB

Статус: проверено
Скачан: 0 раз
Размер: 271 MB
Профиль [ЛС]
Показать сообщения:    

Текущее время: 24-Апр 18:22

Часовой пояс: UTC ± 0



Вы не можете начинать темы
Вы не можете отвечать на сообщения
Вы не можете редактировать свои сообщения
Вы не можете удалять свои сообщения
Вы не можете голосовать в опросах
Вы не можете прикреплять файлы к сообщениям
Вы можете скачивать файлы