Статистика раздачи
Размер:  3,07 GB   |    Зарегистрирован:  1 месяц 4 дня   |    Скачан:  0 раз
Сидов:  7  [  0 KB/s  ]  
 
   
 
 

miranat ®

Пол:
Не указан
Стаж:
2 месяца 6 дней
Сообщений:
225

Квартирник НТВ у Маргулиса. Группа Brazzaville НТВ HD 2018.03.11
Жанр: Pop, Rock
Продолжительность: 00:54:25
Описание: Душевный рок- поп концерт, квартирник, который происходит в гостях у Маргулиса. В теплой и душевной атмосфере друзья Маргулиса исполнят свои самые известные и любимые песни и заодно расскажут историю создания песен. Найк Борзов, В. Сюткин, С. Чиграков, А.Ф. Скляр и многие-многие другие.
Ведущий: Евгений Маргулис
Треклист:
01. Dream-Sea
02. Sleep On My Shoulder
03. The Clouds In Camarillo
04. Girl
05. Soft Parade 2
06. Зеленоглазое такси Green-Eyed Taxi
07. Girl From Vladivostok
08. Robot
09. Jesse James
Качество: HDTV
Разрешение видео/развертка: 1080i
Контейнер: TS
Видео кодек: H.264
Аудио кодек: MP2
Видео: H264; 1920x1080 (16:9); 25.000 fps; ~7 420 kb/s
Аудио: MPEG Audio 48000Hz stereo 192 Кбит/сек

Отчёт MediaInfo / BDInfo

General
ID : 1 (0x1)
Complete name : E:\Behold TV 222\Квартирник НТВ у Маргулиса. Группа Brazzaville НТВ HD 2018.03.11.ts
Format : MPEG-TS
File size : 3.07 GiB
Duration : 54 min 52 s
Overall bit rate mode : Variable
Overall bit rate : 8 010 kb/s
Video
ID : 2104 (0x838)
Menu ID : 104 (0x68)
Format : AVC
Format/Info : Advanced Video Codec
Format profile : High@L4
Format settings, CABAC : Yes
Format settings, ReFrames : 4 frames
Codec ID : 27
Duration : 54 min 52 s
Bit rate : 7 420 kb/s
Width : 1 920 pixels
Height : 1 080 pixels
Display aspect ratio : 16:9
Frame rate : 25.000 FPS
Standard : Component
Color space : YUV
Chroma subsampling : 4:2:0
Bit depth : 8 bits
Scan type : Interlaced
Scan type, store method : Separated fields
Scan order : Top Field First
Bits/(Pixel*Frame) : 0.143
Stream size : 2.84 GiB (93%)
Color range : Limited
Color primaries : BT.709
Transfer characteristics : BT.709
Matrix coefficients : BT.709
Audio
ID : 3104 (0xC20)
Menu ID : 104 (0x68)
Format : MPEG Audio
Format version : Version 1
Format profile : Layer 2
Codec ID : 3
Duration : 54 min 52 s
Bit rate mode : Constant
Bit rate : 192 kb/s
Channel(s) : 2 channels
Sampling rate : 48.0 kHz
Compression mode : Lossy
Stream size : 75.4 MiB (2%)
Language : Russian

Скриншоты

[cybertorrent.ru].t41598.torrent 
Торрент: Зарегистрирован [ 2018-03-19 15:15 ] · 99829B052A8AECA066D5B19B9ABEF7E255DB7848

Скачать .torrent

Скачать

16 KB

Статус: проверено
Скачан: 0 раз
Размер: 3,07 GB
Профиль [ЛС]
Показать сообщения:    

Текущее время: 24-Апр 14:04

Часовой пояс: UTC ± 0



Вы не можете начинать темы
Вы не можете отвечать на сообщения
Вы не можете редактировать свои сообщения
Вы не можете удалять свои сообщения
Вы не можете голосовать в опросах
Вы не можете прикреплять файлы к сообщениям
Вы можете скачивать файлы