Статистика раздачи
Размер:  738 MB   |    Зарегистрирован:  1 месяц 6 дней   |    Скачан:  0 раз

Полного источника не было: Никогда

 
   
 
 

krek ®

Пол:
Не указан
Стаж:
2 месяца 10 дней
Сообщений:
176

Джеко / Джек - тыквенная голова / Джек - фонарь / Jack-O / Jack Lantern Страна: США
Жанр: ужасы, мистика, слэшер
Год выпуска: 1995
Продолжительность: 01:28:57
Перевод: Авторский (одноголосый закадровый) Михаил Иванов
Субтитры: нет
Оригинальная аудиодорожка: нет
Режиссер: Стив Лэтшоу / Steve Latshaw
В ролях: Кэмерон Митчелл, Линни Куигли, Mеддисон K. Кроун, Джон Кэрредин, Гэри Долес, Райан Лэтшоу, Катрин Уолш, Рэйчел Картер, Том Ферда, Билл Кросс, Хелен Килинг, Кристина Коннелл, Майк Коннер, Бринк Стивенс, Джо Солари, Патрик Моран, Доун Уайлдсмит, Том Фергюсон, Ронда Риггз, Рик Риггз
Описание: В 1915 году семья Миллеров поймала и казнила колдуна, убившего ради магических целей несколько местных девственниц. С тех пор минуло 80 лет и ничего не предвещало беды. Если бы трое недалеких подростков на Хэллоуин не отправились на кладбище и случайно не совершили ритуал, освобождающий дух казненного колдуна. Воспользовавшись долгожданной возможностью, дух вселяется в чучело с тыквой вместо головы и косой в руках и отправляется вершить правосудие прямехонько в дом, где живут потомки убивших его людей. А в доме в этот момент находится только молоденькая Кэролин, согласившаяся вместо веселой вечеринки с приятелями провести ночь Хэллоуина со своим маленьким братиком Шоном… Теперь на хрупкие плечи девушки ложится трудная задача не только спасти свою жизнь и младшего брата, но и отправить обратно в могилу дух злобного колдуна, как это некогда сделали их предки (ovpdonetsk).
Сэмпл: http://multi-up.com/1190312
Качество видео: DVDRip
Спасибо Гость
Формат видео: AVI
Видео: XviD, 640x480 (4:3), 25.000 fps, 1022 kbps avg
Аудио: Russian 48 kHz, MPEG Layer 3, 2 ch, 128 kbps avg

MediaInfo

General
Complete name : F:\Jack Lantern_1995\Джеко.Jacko.1995.DVDRip.AVO.Ivanov.avi
Format : AVI
Format/Info : Audio Video Interleave
File size : 738 MiB
Duration : 1 h 28 min
Overall bit rate : 1 159 kb/s
Writing application : VirtualDubModRus 1.5.10.2 (build 2542/release)
Writing library : VirtualDubMod build 2542/release
Video
ID : 0
Format : MPEG-4 Visual
Format profile : Advanced Simple@L5
Format settings : BVOP1
Format settings, BVOP : 1
Format settings, QPel : No
Format settings, GMC : No warppoints
Format settings, Matrix : Default (H.263)
Codec ID : XVID
Codec ID/Hint : XviD
Duration : 1 h 28 min
Bit rate : 1 022 kb/s
Width : 640 pixels
Height : 480 pixels
Display aspect ratio : 4:3
Frame rate : 25.000 FPS
Color space : YUV
Chroma subsampling : 4:2:0
Bit depth : 8 bits
Scan type : Progressive
Compression mode : Lossy
Bits/(Pixel*Frame) : 0.133
Stream size : 650 MiB (88%)
Writing library : XviD 1.2.0.dev47 (UTC 2006-11-01)
Audio
ID : 1
Format : MPEG Audio
Format version : Version 1
Format profile : Layer 3
Format settings : Joint stereo / MS Stereo
Codec ID : 55
Codec ID/Hint : MP3
Duration : 1 h 28 min
Bit rate mode : Constant
Bit rate : 128 kb/s
Channel(s) : 2 channels
Sampling rate : 48.0 kHz
Compression mode : Lossy
Stream size : 81.4 MiB (11%)
Alignment : Aligned on interleaves
Interleave, duration : 40 ms (1.00 video frame)
Interleave, preload duratio : 504 ms
Writing library : LAME3.98.4ЄЄЄЄЄЄЄЄЄЄ

Скриншоты

[cybertorrent.ru].t41599.torrent 
Торрент: Зарегистрирован [ 2018-03-19 15:15 ] · 14DE0B8F62B9E09875AC6DA2F184903FC8A702DD

Скачать .torrent

Скачать

15 KB

Статус: проверено
Скачан: 0 раз
Размер: 738 MB
Профиль [ЛС]
Показать сообщения:    

Текущее время: 25-Апр 21:57

Часовой пояс: UTC ± 0



Вы не можете начинать темы
Вы не можете отвечать на сообщения
Вы не можете редактировать свои сообщения
Вы не можете удалять свои сообщения
Вы не можете голосовать в опросах
Вы не можете прикреплять файлы к сообщениям
Вы можете скачивать файлы