Статистика раздачи
Размер:  1,65 GB   |    Зарегистрирован:  2 месяца 3 дня   |    Скачан:  0 раз

Полного источника не было: Никогда

 
   
 
 

оска ®

Пол:
Не указан
Стаж:
3 месяца 4 дня
Сообщений:
109

Johannes Brahms: Symphonies / Concertos / Piano Music / Chamber Music / A German Requiem
Иоганнес Брамс: Симфонии / Концерты / Фортепианные произведения / Камерные произведения / Немецкий реквием
Жанр: Classical, Romantic
Страна-производитель диска: EU
Год издания диска: 2011
Издатель (лейбл): Documents / The Intense Media
Номер по каталогу: 233016
Дата записи: 1934-1957
Аудиокодек: FLAC
Тип рипа: image+.cue
Битрейт аудио: lossless
Продолжительность: 08:19:23
Источник: собственный рип
Наличие сканов в содержимом раздачи: да
Треклист:

CD1

Symphony No. 1 in C minor, op. 68
01. I. Un poco sostenuto. Allegro - 14:21
02. II. Andante sostenuto - 08:49
03. III. Un poco allegretto e grazioso - 04:27
04. IV. Adagio. Più andante. Allegro non troppo, ma con brio - 17:32

CD2

Symphony No. 2 in D major, op. 73
01. I. Allegro non troppo - 13:29
02. II. Adagio non troppo - 08:46
03. III. Allegretto grazioso - 04:48
04. IV. Allegro con spirito - 08:05
Symphony No. 3 in F major, op. 90
05. I. Allegro con brio - 10:45
06. II. Andante - 09:07
07. III. Poco allegretto - 06:27
08. IV. Allegro - 09:25

CD3

Symphony No. 4 in E minor, op. 98
01. I. Allegro non troppo - 11:50
02. II. Andante moderato - 11:30
03. III. Allegro giocoso - 06:47
04. IV. Allegro energico e passionato - 10:07

CD4

Violin Concerto in D major, op. 77
01. I. Allegro non troppo (cadenza: Kreisler) - 22:52
02. II. Adagio - 09:58
03. III. Allegro giocoso, ma non troppo vivace - 08:22

CD5

Piano Concerto No. 2 in B-flat major, op. 83
01. I. Allegro non troppo - 16:05
02. II. Allegro appassionato - 08:14
03. III. Andante - 12:46
04. IV. Andante grazioso - 08:37

CD6

Ungarische Tänze (Hungarian Dances)
01. Hungarian Dance No. 1 in G minor - 02:30
02. Hungarian Dance No. 2 in D minor - 02:37
03. Hungarian Dance No. 3 in F major - 02:06
04. Hungarian Dance No. 4 in F minor - 03:10
05. Hungarian Dance No. 5 in F-sharp major - 01:50
06. Hungarian Dance No. 6 in D-flat major - 03:05
07. Hungarian Dance No. 7 in A major - 01:33
08. Hungarian Dance No. 8 in A minor - 02:24
09. Hungarian Dance No. 9 in E minor - 01:51
10. Hungarian Dance No. 10 in E major - 01:38
11. Hungarian Dance No. 11 in D minor - 03:17
12. Hungarian Dance No. 12 in D minor - 02:07
13. Hungarian Dance No. 13 in D major - 01:22
14. Hungarian Dance No. 14 in D minor - 01:50
15. Hungarian Dance No. 15 in B-flat major - 02:04
16. Hungarian Dance No. 16 in F minor - 02:05
17. Hungarian Dance No. 17 in F-sharp minor - 03:00
18. Hungarian Dance No. 18 in D major - 01:26
19. Hungarian Dance No. 19 in B minor - 01:38
20. Hungarian Dance No. 20 in E minor - 02:10
21. Hungarian Dance No. 21 in E minor - 01:32

CD7

Piano Trio No. 1 in B major, op. 8
01. I. Allegro con brio - 16:02
02. II. Scherzo: Allegro molto - 07:20
03. III. Adagio - 09:26
04. IV. Allegro - 07:08
Intermezzi
05. Intermezzo in E-flat major, op. 117, no. 1 - 04:55
06. Intermezzo in B-flat major, op. 117, no. 2 - 04:58

CD8

String Sextet No. 1 in B-flat major, op. 18
01. I. Allegro ma non troppo - 12:20
02. II. Andante ma moderato - 10:30
03. III. Scherzo: Allegretto molto - 02:56
04. IV. Rondo: Poco allegretto e grazioso - 11:20
05. Rhapsody in G minor, op. 79, no. 2 - 05:49

CD9

Variations on a Theme by Paganini, op. 35
01. Book 1: Theme - 00:34
02. Book 1: Variation 1 - 00:26
03. Book 1: Variation 2 - 00:27
04. Book 1: Variation 3 - 00:28
05. Book 1: Variation 4 - 00:44
06. Book 1: Variation 5 - 00:57
07. Book 1: Variation 6 - 00:30
08. Book 1: Variation 7 - 00:25
09. Book 1: Variation 8 - 00:35
10. Book 1: Variation 9 - 01:18
11. Book 1: Variation 10 - 01:12
12. Book 1: Variation 11 - 01:30
13. Book 1: Variation 12 - 00:52
14. Book 1: Variation 13 - 00:35
15. Book 1: Variation 14 - 00:59
16. Book 2: Variation 1 - 00:43
17. Book 2: Variation 2 - 00:30
18. Book 2: Variation 3 - 00:34
19. Book 2: Variation 4 - 01:10
20. Book 2: Variation 5 - 00:31
21. Book 2: Variation 6 - 00:27
22. Book 2: Variation 7 - 00:22
23. Book 2: Variation 8 - 00:37
24. Book 2: Variation 9 - 00:48
25. Book 2: Variation 10 - 00:40
26. Book 2: Variation 11 - 00:28
27. Book 2: Variation 12 - 01:10
28. Book 2: Variation 13 - 00:53
29. Book 2: Variation 14 - 01:45
Violin Sonata No. 3 in D minor, op. 108
30. I. Allegro - 07:03
31. II. Adagio - 04:48
32. III. Un poco presto e con sentimento - 02:45
33. IV. Presto agitato - 05:22

CD10

Ein deutsches Requiem, op. 45 (A German Requiem)
01. Chorus: "Selig sind, die da Leid tragen" - 11:42
02. Chorus: "Denn alles Fleisch, es ist wie Gras" - 15:40
03. Baritone, chorus: "Herr, lehre doch mich, dass ein Ende mit mir haben muss" - 10:45
04. Chorus: "Wie lieblich sind deine Wohnungen" - 05:14
05. Soprano: "Ihr habt nun Traurigkeit" / Chorus: "Ich will euch trösten" - 08:06
06. Chorus: "Denn wir haben hie keine bleibende Statt" / Baritone: "Siehe, ich sage euch ein Geheimnis" - 11:40
07. Chorus: "Selig sind die Toten, die in dem Herren sterben" - 13:02
Исполнители:
Symphony No. 1 in C minor, op. 68 - оркестр Amsterdam Concertgebouw Orkest п/у Herbert von Karajan; запись 1943 г.
Symphony No. 2 in D major, op. 73 - оркестр Danish State Radio Symphony Orchestra п/у Fritz Busch; запись 1947 г.
Symphony No. 3 in F major, op. 90 - оркестр Berliner Philharmoniker п/у Hans Knappertsbusch; запись 1944 г.
Symphony No. 4 in E minor, op. 98 - оркестр London Symphony Orchestra п/у Josef Krips; запись 1950 г.
Violin Concerto in D major, op. 77 - Yehudi Menuhin (скрипка), оркестр Berliner Philharmoniker п/у Rudolf Kempe; запись 1957 г.
Piano Concerto No. 2 in B-flat major, op. 83 - Solomon (фортепиано), Haydn Rogerson (виолончель в ч. III), оркестр Philharmonia Orchestra п/у Issey Dobrowen; запись 1947 г.
Ungarische Tänze - Alfred Brendel (фортепиано), Walter Klien (фортепиано); запись 1956 г.
Piano Trio No. 1 in B major, op. 8 - Dame Myra Hess (фортепиано), Isaac Stern (скрипка), Pablo Casals (виолончель); запись 1952 г.
Intermezzi - Géza Anda (фортепиано); запись 1957 г.
String Sextet No. 1 in B-flat major, op. 18 - Isaac Stern (скрипка), Alexander Schneider (скрипка), Milton Katims (альт), Milton Thomas (альт), Pablo Casals (виолончель), Madeline Foley (виолончель); запись 1952 г.
Rhapsody in G minor, op. 79, no. 2 - Solomon (фортепиано); запись 1944 г.
Variations on a Theme by Paganini, op. 35 - Géza Anda (фортепиано); запись 1953 г.
Violin Sonata No. 3 in D minor, op. 108 - Yehudi Menuhin (скрипка), Hephzibah Menuhin (фортепиано); запись 1934 г.
Ein deutsches Requiem, op. 45 - Elisabeth Grümmer (сопрано), Dietrich Fischer-Dieskau (баритон); хор Chor der St.-Hedwigs-Kathedrale, оркестр Berliner Philharmoniker п/у Rudolf Kempe; запись 1955 г.

Лог создания рипа

CD1

Exact Audio Copy V1.3 from 2. September 2016
Отчёт EAC об извлечении, выполненном 9. марта 2018, 19:01
Amsterdam Concertgebouw Orkest, Herbert von Karajan / Johannes Brahms 10 CD collection: CD1
Дисковод: PIONEER DVD-RW DVR-215D Adapter: 1 ID: 3
Режим чтения : Достоверность
Использование точного потока : Да
Отключение кэша аудио : Да
Использование указателей C2 : Нет
Коррекция смещения при чтении : 48
Способность читать области Lead-in и Lead-out : Нет
Заполнение пропущенных сэмплов тишиной : Да
Удаление блоков с тишиной в начале и конце : Нет
При вычислениях CRC использовались нулевые сэмплы : Да
Интерфейс : Встроенный Win32-интерфейс для Win NT/2000
Выходной формат : Пользовательский кодировщик
Выбранный битрейт : 128 kBit/s
Качество : Высокий
Добавление ID3-тега : Нет
Утилита сжатия : C:\Program Files\Exact Audio Copy\Flac\flac.exe
Дополнительные параметры : -V -8 -T "Date=%year%" -T "Genre=%genre%" %source%
TOC извлечённого CD
Трек | Старт | Длительность | Начальный сектор | Конечный сектор
---------------------------------------------------------------------
1 | 0:00.00 | 14:21.15 | 0 | 64589
2 | 14:21.15 | 8:49.06 | 64590 | 104270
3 | 23:10.21 | 4:27.22 | 104271 | 124317
4 | 27:37.43 | 17:32.09 | 124318 | 203226
Характеристики диапазона извлечения и сообщения об ошибках
Выбранный диапазон
Имя файла C:\Johannes Brahms 10 CD collection - CD01.wav
Пиковый уровень 100.0 %
Скорость извлечения 6.8 X
Качество диапазона 100.0 %
CRC теста 1335B5D1
CRC копии 1335B5D1
Копирование... OK
Ошибок не произошло
AccurateRip: сводка
Трек 1 : извлечено точно (доверие 1) [BA690F9B] (AR v2)
Трек 2 : извлечено точно (доверие 1) [D732F977] (AR v2)
Трек 3 : извлечено точно (доверие 1) [73B38EE8] (AR v2)
Трек 4 : извлечено точно (доверие 1) [8DA8DDC0] (AR v2)
Все треки извлечены точно
Конец отчёта
---- CUETools DB Plugin V2.1.6
[CTDB TOCID: Um6Vui1iR1w_2hBv_aMBToZfKEc-] found
Submit result: Um6Vui1iR1w_2hBv_aMBToZfKEc- has been confirmed
Track | CTDB Status
1 | (2/2) Accurately ripped
2 | (2/2) Accurately ripped
3 | (2/2) Accurately ripped
4 | (2/2) Accurately ripped
==== Контрольная сумма отчёта 4625183B71DE8E6516623EBCC656CB1493D2DC5CA1455B2AA49DD976AE11A94A ====

CD2

Exact Audio Copy V1.3 from 2. September 2016
Отчёт EAC об извлечении, выполненном 9. марта 2018, 18:45
Danish State Radio Symphony Orchestra, Fritz Busch / Johannes Brahms 10 CD collection: CD2
Дисковод: PIONEER DVD-RW DVR-215D Adapter: 1 ID: 3
Режим чтения : Достоверность
Использование точного потока : Да
Отключение кэша аудио : Да
Использование указателей C2 : Нет
Коррекция смещения при чтении : 48
Способность читать области Lead-in и Lead-out : Нет
Заполнение пропущенных сэмплов тишиной : Да
Удаление блоков с тишиной в начале и конце : Нет
При вычислениях CRC использовались нулевые сэмплы : Да
Интерфейс : Встроенный Win32-интерфейс для Win NT/2000
Выходной формат : Пользовательский кодировщик
Выбранный битрейт : 128 kBit/s
Качество : Высокий
Добавление ID3-тега : Нет
Утилита сжатия : C:\Program Files\Exact Audio Copy\Flac\flac.exe
Дополнительные параметры : -V -8 -T "Date=%year%" -T "Genre=%genre%" %source%
TOC извлечённого CD
Трек | Старт | Длительность | Начальный сектор | Конечный сектор
---------------------------------------------------------------------
1 | 0:00.00 | 13:29.21 | 0 | 60695
2 | 13:29.21 | 8:45.69 | 60696 | 100139
3 | 22:15.15 | 4:47.41 | 100140 | 121705
4 | 27:02.56 | 8:05.06 | 121706 | 158086
5 | 35:07.62 | 10:44.41 | 158087 | 206427
6 | 45:52.28 | 9:06.72 | 206428 | 247449
7 | 54:59.25 | 6:26.47 | 247450 | 276446
8 | 61:25.72 | 9:24.72 | 276447 | 318818
Характеристики диапазона извлечения и сообщения об ошибках
Выбранный диапазон
Имя файла C:\Johannes Brahms 10 CD collection - CD02.wav
Пиковый уровень 100.0 %
Скорость извлечения 7.7 X
Качество диапазона 99.9 %
CRC теста 985F8F98
CRC копии 985F8F98
Копирование... OK
Ошибок не произошло
AccurateRip: сводка
Трек 1 : извлечено точно (доверие 2) [8FB4DDD1] (AR v2)
Трек 2 : извлечено точно (доверие 2) [DF14EFB4] (AR v2)
Трек 3 : извлечено точно (доверие 2) [E1BB26AC] (AR v2)
Трек 4 : извлечено точно (доверие 2) [884ACE5B] (AR v2)
Трек 5 : извлечено точно (доверие 2) [C808A6A0] (AR v2)
Трек 6 : извлечено точно (доверие 2) [A48BAB26] (AR v2)
Трек 7 : извлечено точно (доверие 2) [FFCFC4CA] (AR v2)
Трек 8 : извлечено точно (доверие 2) [6E383BA4] (AR v2)
Все треки извлечены точно
Конец отчёта
---- CUETools DB Plugin V2.1.6
[CTDB TOCID: f9DwdGIOpU_mn8ilP9CWBbJI0zw-] found
Submit result: f9DwdGIOpU_mn8ilP9CWBbJI0zw- has been confirmed
Track | CTDB Status
1 | (2/2) Accurately ripped
2 | (2/2) Accurately ripped
3 | (2/2) Accurately ripped
4 | (2/2) Accurately ripped
5 | (2/2) Accurately ripped
6 | (2/2) Accurately ripped
7 | (2/2) Accurately ripped
8 | (2/2) Accurately ripped
==== Контрольная сумма отчёта 319C79102FBE5351803C871F6852FE5BEA2597F9D9D4FCE46C51DC34994776F2 ====

CD4

Exact Audio Copy V1.3 from 2. September 2016
Отчёт EAC об извлечении, выполненном 9. марта 2018, 19:17
London Symphony Orchestra, Josef Krips / Johannes Brahms 10 CD collection: CD3
Дисковод: PIONEER DVD-RW DVR-215D Adapter: 1 ID: 3
Режим чтения : Достоверность
Использование точного потока : Да
Отключение кэша аудио : Да
Использование указателей C2 : Нет
Коррекция смещения при чтении : 48
Способность читать области Lead-in и Lead-out : Нет
Заполнение пропущенных сэмплов тишиной : Да
Удаление блоков с тишиной в начале и конце : Нет
При вычислениях CRC использовались нулевые сэмплы : Да
Интерфейс : Встроенный Win32-интерфейс для Win NT/2000
Выходной формат : Пользовательский кодировщик
Выбранный битрейт : 128 kBit/s
Качество : Высокий
Добавление ID3-тега : Нет
Утилита сжатия : C:\Program Files\Exact Audio Copy\Flac\flac.exe
Дополнительные параметры : -V -8 -T "Date=%year%" -T "Genre=%genre%" %source%
TOC извлечённого CD
Трек | Старт | Длительность | Начальный сектор | Конечный сектор
---------------------------------------------------------------------
1 | 0:00.00 | 11:50.09 | 0 | 53258
2 | 11:50.09 | 11:30.18 | 53259 | 105026
3 | 23:20.27 | 6:46.64 | 105027 | 135540
4 | 30:07.16 | 10:07.08 | 135541 | 181073
Характеристики диапазона извлечения и сообщения об ошибках
Выбранный диапазон
Имя файла C:\Johannes Brahms 10 CD collection - CD03.wav
Пиковый уровень 100.0 %
Скорость извлечения 6.6 X
Качество диапазона 99.9 %
CRC теста 93E97E34
CRC копии 93E97E34
Копирование... OK
Ошибок не произошло
AccurateRip: сводка
Трек 1 : извлечено точно (доверие 2) [BF9B2C60] (AR v2)
Трек 2 : извлечено точно (доверие 2) [5643FC5F] (AR v2)
Трек 3 : извлечено точно (доверие 2) [0F99D78C] (AR v2)
Трек 4 : извлечено точно (доверие 2) [30B94B43] (AR v2)
Все треки извлечены точно
Конец отчёта
---- CUETools DB Plugin V2.1.6
[CTDB TOCID: b.bx2eitSnafKv7a3.5tu.nnAvM-] found
Submit result: b.bx2eitSnafKv7a3.5tu.nnAvM- has been confirmed
Track | CTDB Status
1 | (2/2) Accurately ripped
2 | (2/2) Accurately ripped
3 | (2/2) Accurately ripped
4 | (2/2) Accurately ripped
==== Контрольная сумма отчёта 4715F57D642E2802E492E62223DF92D373515CA513476D0BA97A5F48AF98BAAF ====

CD4

Exact Audio Copy V1.3 from 2. September 2016
Отчёт EAC об извлечении, выполненном 9. марта 2018, 19:35
Yehudi Menuhin & Berliner Philharmoniker, Rudolf Kempe / Johannes Brahms 10 CD collection: CD4
Дисковод: PIONEER DVD-RW DVR-215D Adapter: 1 ID: 3
Режим чтения : Достоверность
Использование точного потока : Да
Отключение кэша аудио : Да
Использование указателей C2 : Нет
Коррекция смещения при чтении : 48
Способность читать области Lead-in и Lead-out : Нет
Заполнение пропущенных сэмплов тишиной : Да
Удаление блоков с тишиной в начале и конце : Нет
При вычислениях CRC использовались нулевые сэмплы : Да
Интерфейс : Встроенный Win32-интерфейс для Win NT/2000
Выходной формат : Пользовательский кодировщик
Выбранный битрейт : 128 kBit/s
Качество : Высокий
Добавление ID3-тега : Нет
Утилита сжатия : C:\Program Files\Exact Audio Copy\Flac\flac.exe
Дополнительные параметры : -V -8 -T "Date=%year%" -T "Genre=%genre%" %source%
TOC извлечённого CD
Трек | Старт | Длительность | Начальный сектор | Конечный сектор
---------------------------------------------------------------------
1 | 0:00.00 | 22:51.54 | 0 | 102878
2 | 22:51.54 | 9:58.15 | 102879 | 147743
3 | 32:49.69 | 8:22.09 | 147744 | 185402
Характеристики диапазона извлечения и сообщения об ошибках
Выбранный диапазон
Имя файла C:\Johannes Brahms 10 CD collection - CD04.wav
Пиковый уровень 100.0 %
Скорость извлечения 6.6 X
Качество диапазона 99.9 %
CRC теста 2F4F4098
CRC копии 2F4F4098
Копирование... OK
Ошибок не произошло
AccurateRip: сводка
Трек 1 : извлечено точно (доверие 2) [608F75C8] (AR v2)
Трек 2 : извлечено точно (доверие 2) [94D7F850] (AR v2)
Трек 3 : извлечено точно (доверие 2) [C6B20E4F] (AR v2)
Все треки извлечены точно
Конец отчёта
---- CUETools DB Plugin V2.1.6
[CTDB TOCID: gFxUTZmjJzfV2lN7.WmVBeSxo8s-] found
Submit result: gFxUTZmjJzfV2lN7.WmVBeSxo8s- has been confirmed
Track | CTDB Status
1 | (2/2) Accurately ripped
2 | (2/2) Accurately ripped
3 | (2/2) Accurately ripped
==== Контрольная сумма отчёта A5E73EF512C1E4A1D2BCF4D11F240E2329CCED7F188F997D6B349D229CD49E5A ====

CD5

Exact Audio Copy V1.3 from 2. September 2016
Отчёт EAC об извлечении, выполненном 9. марта 2018, 19:59
Solomon & Philharmonia Orchestra, Issey Dobrowen / Johannes Brahms 10 CD collection: CD5
Дисковод: PIONEER DVD-RW DVR-215D Adapter: 1 ID: 3
Режим чтения : Достоверность
Использование точного потока : Да
Отключение кэша аудио : Да
Использование указателей C2 : Нет
Коррекция смещения при чтении : 48
Способность читать области Lead-in и Lead-out : Нет
Заполнение пропущенных сэмплов тишиной : Да
Удаление блоков с тишиной в начале и конце : Нет
При вычислениях CRC использовались нулевые сэмплы : Да
Интерфейс : Встроенный Win32-интерфейс для Win NT/2000
Выходной формат : Пользовательский кодировщик
Выбранный битрейт : 128 kBit/s
Качество : Высокий
Добавление ID3-тега : Нет
Утилита сжатия : C:\Program Files\Exact Audio Copy\Flac\flac.exe
Дополнительные параметры : -V -8 -T "Date=%year%" -T "Genre=%genre%" %source%
TOC извлечённого CD
Трек | Старт | Длительность | Начальный сектор | Конечный сектор
---------------------------------------------------------------------
1 | 0:00.00 | 16:05.26 | 0 | 72400
2 | 16:05.26 | 8:13.48 | 72401 | 109423
3 | 24:18.74 | 12:45.41 | 109424 | 166839
4 | 37:04.40 | 8:37.21 | 166840 | 205635
Характеристики диапазона извлечения и сообщения об ошибках
Выбранный диапазон
Имя файла C:\Johannes Brahms 10 CD collection - CD05.wav
Пиковый уровень 100.0 %
Скорость извлечения 6.8 X
Качество диапазона 100.0 %
CRC теста 5C46E96D
CRC копии 5C46E96D
Копирование... OK
Ошибок не произошло
AccurateRip: сводка
Трек 1 : извлечено точно (доверие 1) [C98CF11D] (AR v2)
Трек 2 : извлечено точно (доверие 1) [D45DC4EC] (AR v2)
Трек 3 : извлечено точно (доверие 1) [F2AE477E] (AR v2)
Трек 4 : извлечено точно (доверие 1) [4AFF36B1] (AR v2)
Все треки извлечены точно
Конец отчёта
---- CUETools DB Plugin V2.1.6
[CTDB TOCID: eJDb.l8TqXlOzAcFDWOYDE9lcL4-] found
Submit result: eJDb.l8TqXlOzAcFDWOYDE9lcL4- has been confirmed
Track | CTDB Status
1 | (2/2) Accurately ripped
2 | (2/2) Accurately ripped
3 | (2/2) Accurately ripped
4 | (2/2) Accurately ripped
==== Контрольная сумма отчёта 52186BE6C25314BACF7606093FB7AD46603A5E100536B43058A1CBB50B830A4B ====

CD6

Exact Audio Copy V1.3 from 2. September 2016
Отчёт EAC об извлечении, выполненном 9. марта 2018, 20:18
Alfred Brendel & Walter Klien / Johannes Brahms 10 CD collection: CD6
Дисковод: PIONEER DVD-RW DVR-215D Adapter: 1 ID: 3
Режим чтения : Достоверность
Использование точного потока : Да
Отключение кэша аудио : Да
Использование указателей C2 : Нет
Коррекция смещения при чтении : 48
Способность читать области Lead-in и Lead-out : Нет
Заполнение пропущенных сэмплов тишиной : Да
Удаление блоков с тишиной в начале и конце : Нет
При вычислениях CRC использовались нулевые сэмплы : Да
Интерфейс : Встроенный Win32-интерфейс для Win NT/2000
Выходной формат : Пользовательский кодировщик
Выбранный битрейт : 128 kBit/s
Качество : Высокий
Добавление ID3-тега : Нет
Утилита сжатия : C:\Program Files\Exact Audio Copy\Flac\flac.exe
Дополнительные параметры : -V -8 -T "Date=%year%" -T "Genre=%genre%" %source%
TOC извлечённого CD
Трек | Старт | Длительность | Начальный сектор | Конечный сектор
---------------------------------------------------------------------
1 | 0:00.00 | 2:29.50 | 0 | 11224
2 | 2:29.50 | 2:37.22 | 11225 | 23021
3 | 5:06.72 | 2:06.21 | 23022 | 32492
4 | 7:13.18 | 3:09.67 | 32493 | 46734
5 | 10:23.10 | 1:49.49 | 46735 | 54958
6 | 12:12.59 | 3:04.43 | 54959 | 68801
7 | 15:17.27 | 1:32.68 | 68802 | 75769
8 | 16:50.20 | 2:23.62 | 75770 | 86556
9 | 19:14.07 | 1:50.69 | 86557 | 94875
10 | 21:05.01 | 1:38.02 | 94876 | 102227
11 | 22:43.03 | 3:17.27 | 102228 | 117029
12 | 26:00.30 | 2:07.09 | 117030 | 126563
13 | 28:07.39 | 1:22.34 | 126564 | 132747
14 | 29:29.73 | 1:49.69 | 132748 | 140991
15 | 31:19.67 | 2:04.34 | 140992 | 150325
16 | 33:24.26 | 2:04.69 | 150326 | 159694
17 | 35:29.20 | 2:59.70 | 159695 | 173189
18 | 38:29.15 | 1:25.63 | 173190 | 179627
19 | 39:55.03 | 1:38.16 | 179628 | 186993
20 | 41:33.19 | 2:09.69 | 186994 | 196737
21 | 43:43.13 | 1:32.35 | 196738 | 203672
Характеристики диапазона извлечения и сообщения об ошибках
Выбранный диапазон
Имя файла C:\Johannes Brahms 10 CD collection - CD06.wav
Пиковый уровень 100.0 %
Скорость извлечения 6.8 X
Качество диапазона 100.0 %
CRC теста A0701D09
CRC копии A0701D09
Копирование... OK
Ошибок не произошло
AccurateRip: сводка
Трек 1 : извлечено точно (доверие 2) [20E20FE1] (AR v2)
Трек 2 : извлечено точно (доверие 2) [B98C26A7] (AR v2)
Трек 3 : извлечено точно (доверие 2) [4E30F50A] (AR v2)
Трек 4 : извлечено точно (доверие 2) [BB4F8AFB] (AR v2)
Трек 5 : извлечено точно (доверие 2) [B0F90782] (AR v2)
Трек 6 : извлечено точно (доверие 2) [FE946425] (AR v2)
Трек 7 : извлечено точно (доверие 2) [0138858F] (AR v2)
Трек 8 : извлечено точно (доверие 2) [078CFC16] (AR v2)
Трек 9 : извлечено точно (доверие 2) [C1CBCFDC] (AR v2)
Трек 10 : извлечено точно (доверие 2) [EB6A077B] (AR v2)
Трек 11 : извлечено точно (доверие 2) [74741680] (AR v2)
Трек 12 : извлечено точно (доверие 2) [13D27E1D] (AR v2)
Трек 13 : извлечено точно (доверие 2) [E46DBEBA] (AR v2)
Трек 14 : извлечено точно (доверие 2) [EF90AF56] (AR v2)
Трек 15 : извлечено точно (доверие 2) [3360FC01] (AR v2)
Трек 16 : извлечено точно (доверие 2) [84AC243B] (AR v2)
Трек 17 : извлечено точно (доверие 2) [E66C433D] (AR v2)
Трек 18 : извлечено точно (доверие 2) [86C62CAF] (AR v2)
Трек 19 : извлечено точно (доверие 2) [26245C77] (AR v2)
Трек 20 : извлечено точно (доверие 2) [32A932CD] (AR v2)
Трек 21 : извлечено точно (доверие 2) [E7B2739E] (AR v2)
Все треки извлечены точно
Конец отчёта
---- CUETools DB Plugin V2.1.6
[CTDB TOCID: ukkq7gMSMB_DAf6UZ3zjdlCwHTg-] found
Submit result: ukkq7gMSMB_DAf6UZ3zjdlCwHTg- has been confirmed
Track | CTDB Status
1 | (1/1) Accurately ripped
2 | (1/1) Accurately ripped
3 | (1/1) Accurately ripped
4 | (1/1) Accurately ripped
5 | (1/1) Accurately ripped
6 | (1/1) Accurately ripped
7 | (1/1) Accurately ripped
8 | (1/1) Accurately ripped
9 | (1/1) Accurately ripped
10 | (1/1) Accurately ripped
11 | (1/1) Accurately ripped
12 | (1/1) Accurately ripped
13 | (1/1) Accurately ripped
14 | (1/1) Accurately ripped
15 | (1/1) Accurately ripped
16 | (1/1) Accurately ripped
17 | (1/1) Accurately ripped
18 | (1/1) Accurately ripped
19 | (1/1) Accurately ripped
20 | (1/1) Accurately ripped
21 | (1/1) Accurately ripped
==== Контрольная сумма отчёта 6D474E2D2B9F801ADFA63E6B17D99C59471B367E449F275D6F2A40FCEBE51078 ====

CD7

Exact Audio Copy V1.3 from 2. September 2016
Отчёт EAC об извлечении, выполненном 9. марта 2018, 20:38
Dame Myra Hess, Isaac Stern & Pablo Casals / Johannes Brahms 10 CD collection: CD7
Дисковод: PIONEER DVD-RW DVR-215D Adapter: 1 ID: 3
Режим чтения : Достоверность
Использование точного потока : Да
Отключение кэша аудио : Да
Использование указателей C2 : Нет
Коррекция смещения при чтении : 48
Способность читать области Lead-in и Lead-out : Нет
Заполнение пропущенных сэмплов тишиной : Да
Удаление блоков с тишиной в начале и конце : Нет
При вычислениях CRC использовались нулевые сэмплы : Да
Интерфейс : Встроенный Win32-интерфейс для Win NT/2000
Выходной формат : Пользовательский кодировщик
Выбранный битрейт : 128 kBit/s
Качество : Высокий
Добавление ID3-тега : Нет
Утилита сжатия : C:\Program Files\Exact Audio Copy\Flac\flac.exe
Дополнительные параметры : -V -8 -T "Date=%year%" -T "Genre=%genre%" %source%
TOC извлечённого CD
Трек | Старт | Длительность | Начальный сектор | Конечный сектор
---------------------------------------------------------------------
1 | 0:00.00 | 16:02.14 | 0 | 72163
2 | 16:02.14 | 7:19.66 | 72164 | 105154
3 | 23:22.05 | 9:25.61 | 105155 | 147590
4 | 32:47.66 | 7:08.31 | 147591 | 179721
5 | 39:56.22 | 4:55.16 | 179722 | 201862
6 | 44:51.38 | 4:58.16 | 201863 | 224228
Характеристики диапазона извлечения и сообщения об ошибках
Выбранный диапазон
Имя файла C:\Johannes Brahms 10 CD collection - CD07.wav
Пиковый уровень 100.0 %
Скорость извлечения 7.0 X
Качество диапазона 100.0 %
CRC теста B6381513
CRC копии B6381513
Копирование... OK
Ошибок не произошло
AccurateRip: сводка
Трек 1 : извлечено точно (доверие 2) [38E6EB24] (AR v2)
Трек 2 : извлечено точно (доверие 2) [4023F1B4] (AR v2)
Трек 3 : извлечено точно (доверие 2) [8AFD97CC] (AR v2)
Трек 4 : извлечено точно (доверие 2) [3601BF86] (AR v2)
Трек 5 : извлечено точно (доверие 2) [1BF5015C] (AR v2)
Трек 6 : извлечено точно (доверие 2) [3D5487DA] (AR v2)
Все треки извлечены точно
Конец отчёта
---- CUETools DB Plugin V2.1.6
[CTDB TOCID: GW7T6t7yd8eH4rn2B2zduj1PLoM-] found
Submit result: GW7T6t7yd8eH4rn2B2zduj1PLoM- has been confirmed
Track | CTDB Status
1 | (2/2) Accurately ripped
2 | (2/2) Accurately ripped
3 | (2/2) Accurately ripped
4 | (2/2) Accurately ripped
5 | (2/2) Accurately ripped
6 | (2/2) Accurately ripped
==== Контрольная сумма отчёта 509061B01AAA213F3AB3BEB1DF644DB69787F9088AA75B32629368CA3CB8E7E6 ====

CD8

Exact Audio Copy V1.3 from 2. September 2016
Отчёт EAC об извлечении, выполненном 9. марта 2018, 22:01
Isaac Stern, Alexander Schneider, Milton Katims, Milton Thomas, Pablo Casals, Madeline Foley / Johannes Brahms 10 CD collection: CD8
Дисковод: PIONEER DVD-RW DVR-215D Adapter: 1 ID: 3
Режим чтения : Достоверность
Использование точного потока : Да
Отключение кэша аудио : Да
Использование указателей C2 : Нет
Коррекция смещения при чтении : 48
Способность читать области Lead-in и Lead-out : Нет
Заполнение пропущенных сэмплов тишиной : Да
Удаление блоков с тишиной в начале и конце : Нет
При вычислениях CRC использовались нулевые сэмплы : Да
Интерфейс : Встроенный Win32-интерфейс для Win NT/2000
Выходной формат : Пользовательский кодировщик
Выбранный битрейт : 128 kBit/s
Качество : Высокий
Добавление ID3-тега : Нет
Утилита сжатия : C:\Program Files\Exact Audio Copy\Flac\flac.exe
Дополнительные параметры : -V -8 -T "Date=%year%" -T "Genre=%genre%" %source%
TOC извлечённого CD
Трек | Старт | Длительность | Начальный сектор | Конечный сектор
---------------------------------------------------------------------
1 | 0:00.00 | 12:19.74 | 0 | 55498
2 | 12:19.74 | 10:29.67 | 55499 | 102740
3 | 22:49.66 | 2:55.72 | 102741 | 115937
4 | 25:45.63 | 11:19.72 | 115938 | 166934
5 | 37:05.60 | 5:49.06 | 166935 | 193115
Характеристики диапазона извлечения и сообщения об ошибках
Выбранный диапазон
Имя файла C:\Johannes Brahms 10 CD collection - CD08.wav
Пиковый уровень 99.9 %
Скорость извлечения 6.8 X
Качество диапазона 100.0 %
CRC теста 9386A329
CRC копии 9386A329
Копирование... OK
Ошибок не произошло
AccurateRip: сводка
Трек 1 : извлечено точно (доверие 2) [A3ECDE0E] (AR v2)
Трек 2 : извлечено точно (доверие 2) [6C032A09] (AR v2)
Трек 3 : извлечено точно (доверие 2) [476C23C6] (AR v2)
Трек 4 : извлечено точно (доверие 2) [57CDE9CE] (AR v2)
Трек 5 : извлечено точно (доверие 2) [5FF05BC8] (AR v2)
Все треки извлечены точно
Конец отчёта
---- CUETools DB Plugin V2.1.6
[CTDB TOCID: 087UgnKeGsH7IN.Zk6RIItVxx94-] found
Submit result: 087UgnKeGsH7IN.Zk6RIItVxx94- has been confirmed
Track | CTDB Status
1 | (2/2) Accurately ripped
2 | (2/2) Accurately ripped
3 | (2/2) Accurately ripped
4 | (2/2) Accurately ripped
5 | (2/2) Accurately ripped
==== Контрольная сумма отчёта C225F1D7F6FD216182FDDD96FF5F6B4C25892D65D7089C53CDFF6A8DCC6469D0 ====

CD9

Exact Audio Copy V1.3 from 2. September 2016
Отчёт EAC об извлечении, выполненном 10. марта 2018, 0:41
Géza Anda / Yehudi Menuhin & Hephzibah Menuhin / Johannes Brahms 10 CD collection: CD9
Дисковод: PIONEER DVD-RW DVR-215D Adapter: 1 ID: 3
Режим чтения : Достоверность
Использование точного потока : Да
Отключение кэша аудио : Да
Использование указателей C2 : Нет
Коррекция смещения при чтении : 48
Способность читать области Lead-in и Lead-out : Нет
Заполнение пропущенных сэмплов тишиной : Да
Удаление блоков с тишиной в начале и конце : Нет
При вычислениях CRC использовались нулевые сэмплы : Да
Интерфейс : Встроенный Win32-интерфейс для Win NT/2000
Выходной формат : Пользовательский кодировщик
Выбранный битрейт : 128 kBit/s
Качество : Высокий
Добавление ID3-тега : Нет
Утилита сжатия : C:\Program Files\Exact Audio Copy\Flac\flac.exe
Дополнительные параметры : -V -8 -T "Date=%year%" -T "Genre=%genre%" %source%
TOC извлечённого CD
Трек | Старт | Длительность | Начальный сектор | Конечный сектор
---------------------------------------------------------------------
1 | 0:00.00 | 0:33.46 | 0 | 2520
2 | 0:33.46 | 0:26.04 | 2521 | 4474
3 | 0:59.50 | 0:26.56 | 4475 | 6480
4 | 1:26.31 | 0:27.43 | 6481 | 8548
5 | 1:53.74 | 0:43.46 | 8549 | 11819
6 | 2:37.45 | 0:56.69 | 11820 | 16088
7 | 3:34.39 | 0:29.46 | 16089 | 18309
8 | 4:04.10 | 0:25.06 | 18310 | 20190
9 | 4:29.16 | 0:34.48 | 20191 | 22788
10 | 5:03.64 | 1:17.39 | 22789 | 28602
11 | 6:21.28 | 1:11.43 | 28603 | 33970
12 | 7:32.71 | 1:29.54 | 33971 | 40699
13 | 9:02.50 | 0:51.56 | 40700 | 44580
14 | 9:54.31 | 0:35.06 | 44581 | 47211
15 | 10:29.37 | 0:58.56 | 47212 | 51617
16 | 11:28.18 | 0:42.73 | 51618 | 54840
17 | 12:11.16 | 0:30.36 | 54841 | 57126
18 | 12:41.52 | 0:33.56 | 57127 | 59657
19 | 13:15.33 | 1:09.39 | 59658 | 64871
20 | 14:24.72 | 0:31.13 | 64872 | 67209
21 | 14:56.10 | 0:26.41 | 67210 | 69200
22 | 15:22.51 | 0:22.14 | 69201 | 70864
23 | 15:44.65 | 0:37.31 | 70865 | 73670
24 | 16:22.21 | 0:48.16 | 73671 | 77286
25 | 17:10.37 | 0:40.26 | 77287 | 80312
26 | 17:50.63 | 0:28.31 | 80313 | 82443
27 | 18:19.19 | 1:10.01 | 82444 | 87694
28 | 19:29.20 | 0:52.43 | 87695 | 91637
29 | 20:21.63 | 1:45.09 | 91638 | 99521
30 | 22:06.72 | 7:03.01 | 99522 | 131247
31 | 29:09.73 | 4:47.43 | 131248 | 152815
32 | 33:57.41 | 2:44.74 | 152816 | 165189
33 | 36:42.40 | 5:22.28 | 165190 | 189367
Характеристики диапазона извлечения и сообщения об ошибках
Выбранный диапазон
Имя файла C:\Johannes Brahms 10 CD collection - CD09.wav
Пиковый уровень 100.0 %
Скорость извлечения 6.7 X
Качество диапазона 100.0 %
CRC теста 4700E196
CRC копии 4700E196
Копирование... OK
Ошибок не произошло
AccurateRip: сводка
Трек 1 : извлечено точно (доверие 1) [D41BC9EA] (AR v2)
Трек 2 : извлечено точно (доверие 1) [4F37F4F6] (AR v2)
Трек 3 : извлечено точно (доверие 1) [20D0469F] (AR v2)
Трек 4 : извлечено точно (доверие 1) [B61CAE6F] (AR v2)
Трек 5 : извлечено точно (доверие 1) [CF0926AE] (AR v2)
Трек 6 : извлечено точно (доверие 1) [439090AE] (AR v2)
Трек 7 : извлечено точно (доверие 1) [3C43872C] (AR v2)
Трек 8 : извлечено точно (доверие 1) [28FF7CC0] (AR v2)
Трек 9 : извлечено точно (доверие 1) [5BC3E55C] (AR v2)
Трек 10 : извлечено точно (доверие 1) [DBF8AA38] (AR v2)
Трек 11 : извлечено точно (доверие 1) [3F1CD8A0] (AR v2)
Трек 12 : извлечено точно (доверие 1) [59BE55D0] (AR v2)
Трек 13 : извлечено точно (доверие 1) [926900E9] (AR v2)
Трек 14 : извлечено точно (доверие 1) [1922098E] (AR v2)
Трек 15 : извлечено точно (доверие 1) [C3D35566] (AR v2)
Трек 16 : извлечено точно (доверие 1) [0515E89F] (AR v2)
Трек 17 : извлечено точно (доверие 1) [7E5619CC] (AR v2)
Трек 18 : извлечено точно (доверие 1) [054B8BF0] (AR v2)
Трек 19 : извлечено точно (доверие 1) [B296E4D6] (AR v2)
Трек 20 : извлечено точно (доверие 1) [1EBACD3E] (AR v2)
Трек 21 : извлечено точно (доверие 1) [650022D3] (AR v2)
Трек 22 : извлечено точно (доверие 1) [BE88CAA9] (AR v2)
Трек 23 : извлечено точно (доверие 1) [23575670] (AR v2)
Трек 24 : извлечено точно (доверие 1) [A2459B48] (AR v2)
Трек 25 : извлечено точно (доверие 1) [5FC7A0A2] (AR v2)
Трек 26 : извлечено точно (доверие 1) [7EAC47B3] (AR v2)
Трек 27 : извлечено точно (доверие 1) [2FA8F486] (AR v2)
Трек 28 : извлечено точно (доверие 1) [1EB369C9] (AR v2)
Трек 29 : извлечено точно (доверие 1) [E56830C5] (AR v2)
Трек 30 : извлечено точно (доверие 1) [D01F7229] (AR v2)
Трек 31 : извлечено точно (доверие 1) [4A99EDE5] (AR v2)
Трек 32 : извлечено точно (доверие 1) [C8C686CB] (AR v2)
Трек 33 : извлечено точно (доверие 1) [373AAEAC] (AR v2)
Все треки извлечены точно
Конец отчёта
---- CUETools DB Plugin V2.1.6
[CTDB TOCID: i5kTlgT2e.XjOW42HajAy73k8mo-] found
Submit result: i5kTlgT2e.XjOW42HajAy73k8mo- has been confirmed
Track | CTDB Status
1 | (2/2) Accurately ripped
2 | (2/2) Accurately ripped
3 | (2/2) Accurately ripped
4 | (2/2) Accurately ripped
5 | (2/2) Accurately ripped
6 | (2/2) Accurately ripped
7 | (2/2) Accurately ripped
8 | (2/2) Accurately ripped
9 | (2/2) Accurately ripped
10 | (2/2) Accurately ripped
11 | (2/2) Accurately ripped
12 | (2/2) Accurately ripped
13 | (2/2) Accurately ripped
14 | (2/2) Accurately ripped
15 | (2/2) Accurately ripped
16 | (2/2) Accurately ripped
17 | (2/2) Accurately ripped
18 | (2/2) Accurately ripped
19 | (2/2) Accurately ripped
20 | (2/2) Accurately ripped
21 | (2/2) Accurately ripped
22 | (2/2) Accurately ripped
23 | (2/2) Accurately ripped
24 | (2/2) Accurately ripped
25 | (2/2) Accurately ripped
26 | (2/2) Accurately ripped
27 | (2/2) Accurately ripped
28 | (2/2) Accurately ripped
29 | (2/2) Accurately ripped
30 | (2/2) Accurately ripped
31 | (2/2) Accurately ripped
32 | (2/2) Accurately ripped
33 | (2/2) Accurately ripped
==== Контрольная сумма отчёта E3C81FF2265545682E6A045742E958E4AC4D033D3DB4C502433A6ED675DD256D ====

CD10

Exact Audio Copy V1.3 from 2. September 2016
Отчёт EAC об извлечении, выполненном 10. марта 2018, 1:11
Elisabeth Grümmer; Dietrich Fischer-Dieskau; Chor der St.-Hedwigs-Kathedrale; Berliner Philharmoniker, Rudolf Kempe / Johannes Brahms 10 CD collection: CD10
Дисковод: PIONEER DVD-RW DVR-215D Adapter: 1 ID: 3
Режим чтения : Достоверность
Использование точного потока : Да
Отключение кэша аудио : Да
Использование указателей C2 : Нет
Коррекция смещения при чтении : 48
Способность читать области Lead-in и Lead-out : Нет
Заполнение пропущенных сэмплов тишиной : Да
Удаление блоков с тишиной в начале и конце : Нет
При вычислениях CRC использовались нулевые сэмплы : Да
Интерфейс : Встроенный Win32-интерфейс для Win NT/2000
Выходной формат : Пользовательский кодировщик
Выбранный битрейт : 128 kBit/s
Качество : Высокий
Добавление ID3-тега : Нет
Утилита сжатия : C:\Program Files\Exact Audio Copy\Flac\flac.exe
Дополнительные параметры : -V -8 -T "Date=%year%" -T "Genre=%genre%" %source%
TOC извлечённого CD
Трек | Старт | Длительность | Начальный сектор | Конечный сектор
---------------------------------------------------------------------
1 | 0:00.00 | 11:41.64 | 0 | 52638
2 | 11:41.64 | 15:39.48 | 52639 | 123111
3 | 27:21.37 | 10:44.39 | 123112 | 171450
4 | 38:06.01 | 5:13.38 | 171451 | 194963
5 | 43:19.39 | 8:06.31 | 194964 | 231444
6 | 51:25.70 | 11:39.74 | 231445 | 283943
7 | 63:05.69 | 13:01.66 | 283944 | 342584
Характеристики диапазона извлечения и сообщения об ошибках
Выбранный диапазон
Имя файла C:\Johannes Brahms 10 CD collection - CD10.wav
Пиковый уровень 100.0 %
Скорость извлечения 7.9 X
Качество диапазона 100.0 %
CRC теста D0B9B114
CRC копии D0B9B114
Копирование... OK
Ошибок не произошло
AccurateRip: сводка
Трек 1 : извлечено точно (доверие 2) [CB0D2ACE] (AR v2)
Трек 2 : извлечено точно (доверие 2) [07E24CA8] (AR v2)
Трек 3 : извлечено точно (доверие 2) [6CB9CC8E] (AR v2)
Трек 4 : извлечено точно (доверие 2) [1295705C] (AR v2)
Трек 5 : извлечено точно (доверие 2) [E521D838] (AR v2)
Трек 6 : извлечено точно (доверие 2) [C01F5D41] (AR v2)
Трек 7 : извлечено точно (доверие 2) [E14CE714] (AR v2)
Все треки извлечены точно
Конец отчёта
---- CUETools DB Plugin V2.1.6
[CTDB TOCID: Nl3BwKpDtlrznlZJKmo43cEdQhs-] found
Submit result: Nl3BwKpDtlrznlZJKmo43cEdQhs- has been confirmed
Track | CTDB Status
1 | (2/2) Accurately ripped
2 | (2/2) Accurately ripped
3 | (2/2) Accurately ripped
4 | (2/2) Accurately ripped
5 | (2/2) Accurately ripped
6 | (2/2) Accurately ripped
7 | (2/2) Accurately ripped
==== Контрольная сумма отчёта F6C7306966B1EABEACBD603BC64FBC974338501D9A310BDF3BA6A31F352266A1 ====

Лог проверки качества

AUDIOCHECKER v2.0 beta (build 457) - by Dester - opdester@freemail.hu
~~~~~~~~~~~~~~~~~~~~~~~~~~~~~~~~~~
Started at: воскресенье, 11. 03. 2018. - 14:54.24
10 files found
01 -===- G:\_torrents_\Johannes Brahms 10 CD collection (2011)\CD01 - Symphony No. 1 in C minor, op. 68\Johannes Brahms 10 CD collection - CD01.flac
Extracted successfully
Conclusion: this track is CDDA with probability 43%
Tempfile successfully deleted.
02 -===- G:\_torrents_\Johannes Brahms 10 CD collection (2011)\CD02 - Symphony No. 2 in D major, op. 73; Symphony No. 3 in F major, op. 90\Johannes Brahms 10 CD collection - CD02.flac
Extracted successfully
Conclusion: this track is CDDA with probability 94%
Tempfile successfully deleted.
03 -===- G:\_torrents_\Johannes Brahms 10 CD collection (2011)\CD03 - Symphony No. 4 in E minor, op. 98\Johannes Brahms 10 CD collection - CD03.flac
Extracted successfully
Conclusion: this track is CDDA with probability 100%
Tempfile successfully deleted.
04 -===- G:\_torrents_\Johannes Brahms 10 CD collection (2011)\CD04 - Violin Concerto in D major, op. 77\Johannes Brahms 10 CD collection - CD04.flac
Extracted successfully
Conclusion: this track is CDDA with probability 85%
Tempfile successfully deleted.
05 -===- G:\_torrents_\Johannes Brahms 10 CD collection (2011)\CD05 - Piano Concerto No. 2 in B-flat major, op. 83\Johannes Brahms 10 CD collection - CD05.flac
Extracted successfully
Conclusion: this track is CDDA with probability 100%
Tempfile successfully deleted.
06 -===- G:\_torrents_\Johannes Brahms 10 CD collection (2011)\CD06 - Hungarian Dances (for Two Pianos)\Johannes Brahms 10 CD collection - CD06.flac
Extracted successfully
Conclusion: this track is CDDA with probability 100%
Tempfile successfully deleted.
07 -===- G:\_torrents_\Johannes Brahms 10 CD collection (2011)\CD07 - Piano Trio No. 1 in B major, op. 8; Intermezzi\Johannes Brahms 10 CD collection - CD07.flac
Extracted successfully
Conclusion: this track is CDDA with probability 100%
Tempfile successfully deleted.
08 -===- G:\_torrents_\Johannes Brahms 10 CD collection (2011)\CD08 - String Sextet No. 1 in B-flat major, op. 18; Rhapsody in G minor, op. 79, no. 2\Johannes Brahms 10 CD collection - CD08.flac
Extracted successfully
Conclusion: this track is CDDA with probability 100%
Tempfile successfully deleted.
09 -===- G:\_torrents_\Johannes Brahms 10 CD collection (2011)\CD09 - Variations on a Theme by Paganini, op. 35; Violin Sonata No. 3 in D minor, op. 108\Johannes Brahms 10 CD collection - CD09.flac
Extracted successfully
Conclusion: this track is CDDA with probability 85%
Tempfile successfully deleted.
10 -===- G:\_torrents_\Johannes Brahms 10 CD collection (2011)\CD10 - A German Requiem, op. 45\Johannes Brahms 10 CD collection - CD10.flac
Extracted successfully
Conclusion: this track is CDDA with probability 100%
Tempfile successfully deleted.
Finished at: воскресенье, 11. 03. 2018. - 15:53.59 (operation time: 0:59.34)

Скриншот спектра частот

Доп. информация: Бокс-сет в картонной коробке (без буклета). Каждый диск в индивидуальном картонном конверте.
[cybertorrent.ru].t41601.torrent 
Торрент: Зарегистрирован [ 2018-03-19 15:15 ] · 22658B0CC858450A6BD3E177015B6E85211BDB77

Скачать .torrent

Скачать

46 KB

Статус: проверено
Скачан: 0 раз
Размер: 1,65 GB
Профиль [ЛС]
Показать сообщения:    

Текущее время: 22-Май 23:21

Часовой пояс: UTC ± 0



Вы не можете начинать темы
Вы не можете отвечать на сообщения
Вы не можете редактировать свои сообщения
Вы не можете удалять свои сообщения
Вы не можете голосовать в опросах
Вы не можете прикреплять файлы к сообщениям
Вы можете скачивать файлы