Статистика раздачи
Размер:  186 MB   |    Зарегистрирован:  1 месяц 5 дней   |    Скачан:  0 раз

Полного источника не было: Никогда

 
   
 
 

dash ®

Пол:
Не указан
Стаж:
2 месяца 6 дней
Сообщений:
121

Poulenc - Musique de chamber pour instruments à vent
Жанр: Classical chamber
Страна-производитель диска: Made in West Germany
Год издания диска: 1984
Издатель (лейбл): Erato
Номер по каталогу: ECD 88044
Дата записи: 1983
Аудиокодек: FLAC
Тип рипа: image+.cue
Битрейт аудио: lossless
Продолжительность: 58'49
Источник: релизер
сайт-источник/ник/другое: arepomd
Наличие сканов в содержимом раздачи: да
Треклист:
1-3. Sextet for Piano, Flute, Oboe, Clarinet, Bassoon and Horn 17:58
4-6. Sonata for Flute and Piano 12:21
7-9. Sonata for Oboe and Piano 14:06
10-12. Sonata for Clarinet and Piano 12:25

Исполнители

Francis Poulenc (1899-1963)
Musique de chamber pour instruments à vent
Chamber Works for Wind instruments
The Chamber Music Society of Lincoln Center
Bassoon – Loren Glickman
Clarinet – Gervase de Peyer, Peter Simenauer
Flute – Paula Robison
Horn – Bobby Routch
Oboe – Leonard Arner
Piano – Charles Wadsworth
Recorded at St Bartholomew's Episcopalian Church, White Plains New York, in March 1983.

Лог создания рипа

Exact Audio Copy V1.3 from 2. September 2016
EAC extraction logfile from 3. February 2018, 16:00
Chamber Music Society of Lincoln Center / Musique de chambre pour instruments a vent
Used drive : ASUS BC-12B1ST b Adapter: 1 ID: 0
Read mode : Secure
Utilize accurate stream : Yes
Defeat audio cache : Yes
Make use of C2 pointers : No
Read offset correction : 6
Overread into Lead-In and Lead-Out : No
Fill up missing offset samples with silence : Yes
Delete leading and trailing silent blocks : No
Null samples used in CRC calculations : Yes
Used interface : Native Win32 interface for Win NT & 2000
Used output format : User Defined Encoder
Selected bitrate : 768 kBit/s
Quality : High
Add ID3 tag : No
Command line compressor : C:\Program Files (x86)\Exact Audio Copy\FLAC\FLAC.EXE
Additional command line options : -6 -V -T "ARTIST=%artist%" -T "TITLE=%title%" -T "ALBUM=%albumtitle%" -T "DATE=%year%" -T "TRACKNUMBER=%tracknr%" -T "GENRE=%genre%" -T "COMMENT=%comment%" -T "BAND=%albuminterpret%" -T "ALBUMARTIST=%albuminterpret%" -T "COMPOSER=%composer%" %haslyrics%--tag-from-file=LYRICS="%lyricsfile%"%haslyrics% -T "DISCNUMBER=%cdnumber%" -T "TOTALDISCS=%totalcds%" -T "TOTALTRACKS=%numtracks%" %hascover%--picture="%coverfile%"%hascover% %source% -o %dest%
TOC of the extracted CD
Track | Start | Length | Start sector | End sector
---------------------------------------------------------
1 | 0:00.32 | 7:41.68 | 32 | 34674
2 | 7:42.25 | 4:29.12 | 34675 | 54861
3 | 12:11.37 | 5:44.30 | 54862 | 80691
4 | 17:55.67 | 4:36.58 | 80692 | 101449
5 | 22:32.50 | 4:14.50 | 101450 | 120549
6 | 26:47.25 | 3:35.12 | 120550 | 136686
7 | 30:22.37 | 5:21.68 | 136687 | 160829
8 | 35:44.30 | 4:05.45 | 160830 | 179249
9 | 39:50.00 | 4:45.67 | 179250 | 200691
10 | 44:35.67 | 4:42.28 | 200692 | 221869
11 | 49:18.20 | 4:46.22 | 221870 | 243341
12 | 54:04.42 | 3:02.70 | 243342 | 257061
13 | 57:07.37 | 1:41.63 | 257062 | 264699
Range status and errors
Selected range
Filename R:\Rips of old CDs\Poulenc - Musique de chambre pour instruments a vent Erato\Chamber Music Society of Lincoln Center - Musique de chambre pour instruments a vent.wav
Peak level 86.5 %
Extraction speed 1.8 X
Range quality 100.0 %
Test CRC 3B495578
Copy CRC 3B495578
Copy OK
No errors occurred
AccurateRip summary
Track 1 accurately ripped (confidence 5) [433DE822] (AR v2)
Track 2 accurately ripped (confidence 5) [B5CB8C74] (AR v2)
Track 3 accurately ripped (confidence 5) [F109625C] (AR v2)
Track 4 accurately ripped (confidence 5) [E4DD2B28] (AR v2)
Track 5 accurately ripped (confidence 5) [BF26ADFB] (AR v2)
Track 6 accurately ripped (confidence 5) [797FA980] (AR v2)
Track 7 accurately ripped (confidence 5) [B0D56ED3] (AR v2)
Track 8 accurately ripped (confidence 5) [3819D297] (AR v2)
Track 9 accurately ripped (confidence 5) [E29437D2] (AR v2)
Track 10 accurately ripped (confidence 5) [1DD15EB9] (AR v2)
Track 11 accurately ripped (confidence 5) [C561F3EA] (AR v2)
Track 12 accurately ripped (confidence 5) [0D884A1F] (AR v2)
Track 13 accurately ripped (confidence 5) [A261D27B] (AR v2)
All tracks accurately ripped
End of status report
---- CUETools DB Plugin V2.1.6
[CTDB TOCID: lvLc4l87CM7lLUC2jyGmw.8WBk8-] found
Submit result: lvLc4l87CM7lLUC2jyGmw.8WBk8- has been confirmed
Track | CTDB Status
1 | (4/4) Accurately ripped
2 | (4/4) Accurately ripped
3 | (4/4) Accurately ripped
4 | (4/4) Accurately ripped
5 | (4/4) Accurately ripped
6 | (4/4) Accurately ripped
7 | (4/4) Accurately ripped
8 | (4/4) Accurately ripped
9 | (4/4) Accurately ripped
10 | (4/4) Accurately ripped
11 | (4/4) Accurately ripped
12 | (3/4) Accurately ripped
13 | (4/4) Accurately ripped
==== Log checksum 58D6D7AABC4DDE6F0EA8B9D87084478EF4E5F8D36DCCAED0ECF61204FB538341 ====

Содержание индексной карты (.CUE)

REM GENRE "Chamber Music"
REM DATE 1984
REM DISCID BD0DC90D
REM COMMENT "ExactAudioCopy v1.3"
PERFORMER "Chamber Music Society of Lincoln Center"
TITLE "Musique de chambre pour instruments à vent"
REM COMPOSER "Francis Poulenc"
FILE "Chamber Music Society of Lincoln Center - Musique de chambre pour instruments à vent.flac" WAVE
TRACK 01 AUDIO
TITLE "Sextet for Wind Quintet and Piano: 1. Allegro vivace"
PERFORMER "Chamber Music Society of Lincoln Center"
REM COMPOSER "Francis Poulenc"
INDEX 00 00:00:00
INDEX 01 00:00:32
TRACK 02 AUDIO
TITLE "Sextet for Wind Quintet and Piano: 2. Divertissement"
PERFORMER "Chamber Music Society of Lincoln Center"
REM COMPOSER "Francis Poulenc"
INDEX 00 07:39:25
INDEX 01 07:42:25
TRACK 03 AUDIO
TITLE "Sextet for Wind Quintet and Piano: 3. Finale"
PERFORMER "Chamber Music Society of Lincoln Center"
REM COMPOSER "Francis Poulenc"
INDEX 00 12:08:25
INDEX 01 12:11:37
TRACK 04 AUDIO
TITLE "Sonata for Flute and Piano: 1. Allegro malinconico"
PERFORMER "Chamber Music Society of Lincoln Center"
REM COMPOSER "Francis Poulenc"
INDEX 00 17:51:50
INDEX 01 17:55:67
TRACK 05 AUDIO
TITLE "Sonata for Flute and Piano: 2. Cantilena"
PERFORMER "Chamber Music Society of Lincoln Center"
REM COMPOSER "Francis Poulenc"
INDEX 00 22:27:50
INDEX 01 22:32:50
TRACK 06 AUDIO
TITLE "Sonata for Flute and Piano: 3. Presto giocoso"
PERFORMER "Chamber Music Society of Lincoln Center"
REM COMPOSER "Francis Poulenc"
INDEX 00 26:43:70
INDEX 01 26:47:25
TRACK 07 AUDIO
TITLE "Sonata for Oboe and Piano: 1. Elégie"
PERFORMER "Chamber Music Society of Lincoln Center"
REM COMPOSER "Francis Poulenc"
INDEX 00 30:19:25
INDEX 01 30:22:37
TRACK 08 AUDIO
TITLE "Sonata for Oboe and Piano: 2. Scherzo"
PERFORMER "Chamber Music Society of Lincoln Center"
REM COMPOSER "Francis Poulenc"
INDEX 00 35:42:38
INDEX 01 35:44:30
TRACK 09 AUDIO
TITLE "Sonata for Oboe and Piano: Deploration"
PERFORMER "Chamber Music Society of Lincoln Center"
REM COMPOSER "Francis Poulenc"
INDEX 00 39:48:35
INDEX 01 39:50:00
TRACK 10 AUDIO
TITLE "Sonata for Clarinet and Piano: 1. Allegro tristamente"
PERFORMER "Chamber Music Society of Lincoln Center"
REM COMPOSER "Francis Poulenc"
INDEX 00 44:29:30
INDEX 01 44:35:67
TRACK 11 AUDIO
TITLE "Sonata for Clarinet and Piano: 2. Romanza"
PERFORMER "Chamber Music Society of Lincoln Center"
REM COMPOSER "Francis Poulenc"
INDEX 00 49:15:35
INDEX 01 49:18:20
TRACK 12 AUDIO
TITLE "Sonata for Clarinet and Piano: 3. Finale: Allegro en fuoco"
PERFORMER "Chamber Music Society of Lincoln Center"
REM COMPOSER "Francis Poulenc"
INDEX 00 54:03:50
INDEX 01 54:04:42
TRACK 13 AUDIO
TITLE "Villanelle"
PERFORMER "Chamber Music Society of Lincoln Center"
REM COMPOSER "Francis Poulenc"
INDEX 00 57:03:25
INDEX 01 57:07:37
[cybertorrent.ru].t41603.torrent 
Торрент: Зарегистрирован [ 2018-03-19 15:15 ] · 9C39E7A87F3FA58076E72B821CD5BE41BF15314B

Скачать .torrent

Скачать

16 KB

Статус: проверено
Скачан: 0 раз
Размер: 186 MB
Профиль [ЛС]
Показать сообщения:    

Текущее время: 24-Апр 18:19

Часовой пояс: UTC ± 0



Вы не можете начинать темы
Вы не можете отвечать на сообщения
Вы не можете редактировать свои сообщения
Вы не можете удалять свои сообщения
Вы не можете голосовать в опросах
Вы не можете прикреплять файлы к сообщениям
Вы можете скачивать файлы