Статистика раздачи
Размер:  1,37 GB   |    Зарегистрирован:  1 месяц 5 дней   |    Скачан:  0 раз

Полного источника не было: Никогда

 
   
 
 

safari ®

Пол:
Мужской
Стаж:
2 месяца 8 дней
Сообщений:
765

Никогда не рано умирать / Умирать никогда не рано / Для этого нельзя быть слишком молодым / Never Too Young To Die
Страна: США
Жанр: боевик, приключения
Год выпуска: 1986
Продолжительность: 01:36:17
Перевод: Одноголосый закадровый Александр Смирнов (со вставками Дружининой)
Субтитры: нет
Режиссер: Джил Беттман / Gil Bettman
В ролях: Джон Стэмос, Вэнити, Джин Симмонс, Джордж Лазенби, Роберт Инглунд, Тэра Бакмэн, Бранском Ричмонд
Описание: Молодой человек учился в колледже. А папа его был шпионом. Так вышло, что у них обоих на жизненном пути попадались одни и те же люди. Но папе повезло меньше. Когда он столкнулся с маньяком-гермафродитом, жаждущим отравить водохранилище, из которого Лос-Анджелес берет чистую питьевую воду, то потерпел поражение. Тогда сынок вступил на ту же трудовую авантюрную стезю, которая опять привела к маньяку. А еще у папаши была помощница. Так она и сыночку стала надежным другом и учителем, вплоть до обучения молодого человека премудростям постельных наук. С отважной 'Барбареллой' под боком разве можно проиграть...?
Доп. информация: Выражаю огромную благодарность Нордеру за синхронизацию звуковой дорожки.
Сэмпл: http://multi-up.com/1190443
Качество видео: BDRip (Исходник BDRemux 1080p)
Формат видео: AVI
Видео: XviD 73, 720x384, (1,85:1), 23,976 fps, 1834 Кбит/с, 8 бит
Аудио: Русский (АС3, 2 ch (Front: L R), 48,0 KHz, 192 Kbps)

MediaInfo

Общее
Полное имя : H:\Фильмы на трекер\Никогда не рано умирать (боевик, приключения 1986 год).avi
Формат : AVI
Формат/Информация : Audio Video Interleave
Размер файла : 1,37 Гбайт
Продолжительность : 1 ч. 36 м.
Общий поток : 2035 Кбит/сек
Программа кодирования : VirtualDubMod 1.5.10.3 | www.virtualdub-fr.org || (build 2550/release)
Библиотека кодирования : VirtualDubMod build 2550/release
Видео
Идентификатор : 0
Формат : MPEG-4 Visual
Профиль формата : Advanced Simple@L5
Параметр BVOP формата : 2
Параметр QPel формата : Нет
Параметр GMC формата : Без точки перехода
Параметр матрицы формата : Выборочная
Идентификатор кодека : XVID
Идентификатор кодека/Подсказка : XviD
Продолжительность : 1 ч. 36 м.
Битрейт : 1834 Кбит/сек
Ширина : 704 пикселя
Высота : 384 пикселя
Соотношение сторон : 1,85:1
Частота кадров : 23,976 (23976/1000) кадра/сек
Цветовое пространство : YUV
Субдискретизация насыщенности : 4:2:0
Битовая глубина : 8 бит
Тип развёртки : Прогрессивная
Метод сжатия : С потерями
Бит/(Пиксели*Кадры) : 0.283
Размер потока : 1,24 Гбайт (90%)
Библиотека кодирования : XviD 73
Аудио
Идентификатор : 1
Формат : AC-3
Формат/Информация : Audio Coding 3
Расширение режима : CM (complete main)
Параметр Endianness формата : Big
Идентификатор кодека : 2000
Продолжительность : 1 ч. 36 м.
Вид битрейта : Постоянный
Битрейт : 192 Кбит/сек
Каналы : 2 канала
Расположение каналов : Front: L R
Частота : 48,0 КГц
Частота кадров : 31,250 кадров/сек (1536 spf)
Метод сжатия : С потерями
Размер потока : 133 Мбайт (9%)
Выравнивание : Разделение по промежуткам
Продолжительность промежутка : 42 мс. (1,00 видеокадр)
Время предзагрузки промежутка : 500 мс.

Скриншот c названием фильма

Скриншоты

[cybertorrent.ru].t41604.torrent 
Торрент: Зарегистрирован [ 2018-03-19 15:15 ] · 4E519975CBBD380466CEC92952545A29C541A223

Скачать .torrent

Скачать

14 KB

Статус: проверено
Скачан: 0 раз
Размер: 1,37 GB
Профиль [ЛС]
Показать сообщения:    

Текущее время: 24-Апр 18:20

Часовой пояс: UTC ± 0



Вы не можете начинать темы
Вы не можете отвечать на сообщения
Вы не можете редактировать свои сообщения
Вы не можете удалять свои сообщения
Вы не можете голосовать в опросах
Вы не можете прикреплять файлы к сообщениям
Вы можете скачивать файлы