Статистика раздачи
Размер:  361 MB   |    Зарегистрирован:  1 месяц 4 дня   |    Скачан:  0 раз

Полного источника не было: Никогда

 
   
 
 

tor ®

Пол:
Не указан
Стаж:
2 месяца 8 дней
Сообщений:
231

Татьяна Ильина - Танцуй со мной
Жанр: Pop
Носитель: CD
Страна-производитель диска (релиза): РФ
Год издания: 1999
Аудиокодек: Monkey's Audio Compressor (*.ape)
Тип рипа: image + .cue
Битрейт аудио: lossless
Продолжительность: 00:53:54
Источник (релизер): CD
Наличие сканов в содержимом раздачи: добавлены
-
Треклист:
01 - Танцуй со мной
02 - Апрельский дождь
03 - да-да-да
04 - Птица Феникс
05 - Мой любимый
06 - Ещё вчера
07 - Острова
08 - Не надо, бабы
09 - Не спешите, девки
10 - Бабья роща
11 - Танцуй со мной (karaoke)
12 - Апрельский дождь (karaoke)
-

EAC

Exact Audio Copy V1.3 from 2. September 2016
Отчёт EAC об извлечении, выполненном 9. ноября 2017, 11:55
Татьяна Ильина / Танцуй со мной
Дисковод: HL-DT-STDVDRAM GH24NSD1 Adapter: 1 ID: 2
Режим чтения : Достоверность
Использование точного потока : Да
Отключение кэша аудио : Да
Использование указателей C2 : Нет
Коррекция смещения при чтении : 6
Способность читать области Lead-in и Lead-out : Нет
Заполнение пропущенных сэмплов тишиной : Да
Удаление блоков с тишиной в начале и конце : Нет
При вычислениях CRC использовались нулевые сэмплы : Да
Интерфейс : Встроенный Win32-интерфейс для Win NT/2000
Выходной формат : Внутренние WAV-операции
Формат сэмплов : 44.100 Гц; 16 бит; стерео
TOC извлечённого CD
Трек | Старт | Длительность | Начальный сектор | Конечный сектор
---------------------------------------------------------------------
1 | 0:00.00 | 4:15.63 | 0 | 19187
2 | 4:15.63 | 5:40.22 | 19188 | 44709
3 | 9:56.10 | 4:46.62 | 44710 | 66221
4 | 14:42.72 | 3:46.43 | 66222 | 83214
5 | 18:29.40 | 4:49.47 | 83215 | 104936
6 | 23:19.12 | 5:43.43 | 104937 | 130704
7 | 29:02.55 | 4:29.52 | 130705 | 150931
8 | 33:32.32 | 3:51.16 | 150932 | 168272
9 | 37:23.48 | 2:55.70 | 168273 | 181467
10 | 40:19.43 | 3:22.53 | 181468 | 196670
11 | 43:42.21 | 4:33.30 | 196671 | 217175
12 | 48:15.51 | 5:37.07 | 217176 | 242457
Характеристики диапазона извлечения и сообщения об ошибках
Выбранный диапазон
Имя файла E:\Татьяна Ильина - Танцуй со мной\Татьяна Ильина - Танцуй со мной.wav
Пиковый уровень 94.8 %
Скорость извлечения 1.7 X
Качество диапазона 100.0 %
CRC копии 4A842875
Копирование... OK
Ошибок не произошло
AccurateRip: сводка
Трек 1 отсутствует в базе данных
Трек 2 отсутствует в базе данных
Трек 3 отсутствует в базе данных
Трек 4 отсутствует в базе данных
Трек 5 отсутствует в базе данных
Трек 6 отсутствует в базе данных
Трек 7 отсутствует в базе данных
Трек 8 отсутствует в базе данных
Трек 9 отсутствует в базе данных
Трек 10 отсутствует в базе данных
Трек 11 отсутствует в базе данных
Трек 12 отсутствует в базе данных
Ни одного трека нет в базе AccurateRip
Конец отчёта
---- CUETools DB Plugin V2.1.6
[CTDB TOCID: oQCEq52B2PJefKhMzdfdKzkOPTw-] disk not present in database
Submit result: oQCEq52B2PJefKhMzdfdKzkOPTw- has been uploaded
==== Контрольная сумма отчёта 4F42EB2C4A395C788F65B1E02CD6043A9771EAA84376BF313B9323C74DCD13A0 ====
[cybertorrent.ru].t41608.torrent 
Торрент: Зарегистрирован [ 2018-03-19 15:15 ] · 0134649D8F8EE88CEE545374C9A1A66BA5987C7F

Скачать .torrent

Скачать

15 KB

Статус: проверено
Скачан: 0 раз
Размер: 361 MB
Профиль [ЛС]
Показать сообщения:    

Текущее время: 24-Апр 04:48

Часовой пояс: UTC ± 0



Вы не можете начинать темы
Вы не можете отвечать на сообщения
Вы не можете редактировать свои сообщения
Вы не можете удалять свои сообщения
Вы не можете голосовать в опросах
Вы не можете прикреплять файлы к сообщениям
Вы можете скачивать файлы