Статистика раздачи
Размер:  284 MB   |    Зарегистрирован:  2 месяца 3 дня   |    Скачан:  0 раз

Полного источника не было: Никогда

 
   
 
 

rocky ®

Пол:
Не указан
Стаж:
3 месяца 7 дней
Сообщений:
256

Omoide Hatoba / Kinsei
Жанр: Avantgarde, Psychedelic, Noise Rock
Носитель: CD
Страна-производитель диска (релиза): Japan
Год издания: 1995
Издатель (лейбл): Meldac Corporation
Номер по каталогу: MECI-28001
Страна исполнителя (группы): Japan
Аудиокодек: FLAC (*.flac)
Тип рипа: tracks+.cue
Битрейт аудио: lossless
Продолжительность: 00:45:03
Источник (релизер): Red, dotdash
Наличие сканов в содержимом раздачи: нет--- ---

Треклист

01. 金星
02. オルタナティヴ・ファンカホリック
03. ギオン
04. Go
05. サテライト・グルーブ
06. ヒューマン・トルネード
07. 日本解散
08. 空中はb
09. グッバイ!サブマリーン
10. 幽霊山脈のテーマ
11. クール
12. おやじ
13. ロケンロール・ファンタジア
14. We Are ハロー
15. ホワイト・アワー
16. アーメン

Логи

Лог создания рипа

X Lossless Decoder version 20170729 (150.3)
XLD extraction logfile from 2018-03-12 13:27:36 +0900
Omoide Hatoba / 金星
Used drive : MATSHITA DVD-R UJ-868 (revision KB19)
Media type : Pressed CD
Ripper mode : XLD Secure Ripper
Disable audio cache : OK for the drive with a cache less than 1375KiB
Make use of C2 pointers : NO
Read offset correction : 102
Max retry count : 20
Gap status : Analyzed, Appended (except HTOA)
TOC of the extracted CD
Track | Start | Length | Start sector | End sector
---------------------------------------------------------
1 | 00:00:00 | 00:10:10 | 0 | 759
2 | 00:10:10 | 02:30:37 | 760 | 12046
3 | 02:40:47 | 02:05:70 | 12047 | 21491
4 | 04:46:42 | 03:48:30 | 21492 | 38621
5 | 08:34:72 | 03:52:73 | 38622 | 56094
6 | 12:27:70 | 04:46:70 | 56095 | 77614
7 | 17:14:65 | 01:57:32 | 77615 | 86421
8 | 19:12:22 | 02:29:10 | 86422 | 97606
9 | 21:41:32 | 00:27:68 | 97607 | 99699
10 | 22:09:25 | 03:04:70 | 99700 | 113569
11 | 25:14:20 | 00:34:37 | 113570 | 116156
12 | 25:48:57 | 02:28:65 | 116157 | 127321
13 | 28:17:47 | 02:20:73 | 127322 | 137894
14 | 30:38:45 | 03:39:02 | 137895 | 154321
15 | 34:17:47 | 07:21:28 | 154322 | 187424
16 | 41:39:00 | 03:24:40 | 187425 | 202764
AccurateRip Summary (DiscID: 001757d8-011e25bf-ba0a8f10)
Track 01 : OK (v2, confidence 4/4)
Track 02 : OK (v2, confidence 4/4)
Track 03 : OK (v2, confidence 4/4)
Track 04 : OK (v2, confidence 4/4)
Track 05 : OK (v2, confidence 4/4)
Track 06 : OK (v2, confidence 4/4)
Track 07 : OK (v2, confidence 4/4)
Track 08 : OK (v2, confidence 4/4)
Track 09 : OK (v2, confidence 4/4)
Track 10 : OK (v2, confidence 4/4)
Track 11 : OK (v2, confidence 4/4)
Track 12 : OK (v2, confidence 4/4)
Track 13 : OK (v2, confidence 4/4)
Track 14 : OK (v2, confidence 4/4)
Track 15 : OK (v2, confidence 4/4)
Track 16 : OK (v2, confidence 4/4)
->All tracks accurately ripped.
All Tracks
Album gain : -5.88 dB
Peak : 1.000000
Statistics
Read error : 0
Jitter error (maybe fixed) : 0
Retry sector count : 0
Damaged sector count : 0
Track 01
Filename : /konwersja/Omoide Hatoba - 金星 (1995) {Meldac MECI-28001} [FLAC]/01 - 金星.flac
Pre-gap length : 00:02:00
Track gain : -2.35 dB
Peak : 0.431519
CRC32 hash (test run) : E5D33E45
CRC32 hash : E5D33E45
CRC32 hash (skip zero) : A9DBA6DF
AccurateRip v1 signature : 0FECC939
AccurateRip v2 signature : 9E416E80
->Accurately ripped (v2, confidence 4/4)
Statistics
Read error : 0
Jitter error (maybe fixed) : 0
Retry sector count : 0
Damaged sector count : 0
Track 02
Filename : /konwersja/Omoide Hatoba - 金星 (1995) {Meldac MECI-28001} [FLAC]/02 - オルタナティヴ・ファンカホリック.flac
Track gain : -7.67 dB
Peak : 1.000000
CRC32 hash (test run) : D3814F04
CRC32 hash : D3814F04
CRC32 hash (skip zero) : A1255775
AccurateRip v1 signature : FC8AA52C
AccurateRip v2 signature : 26FA2F27
->Accurately ripped (v2, confidence 4/4)
Statistics
Read error : 0
Jitter error (maybe fixed) : 0
Retry sector count : 0
Damaged sector count : 0
Track 03
Filename : /konwersja/Omoide Hatoba - 金星 (1995) {Meldac MECI-28001} [FLAC]/03 - ギオン.flac
Track gain : -6.89 dB
Peak : 0.892670
CRC32 hash (test run) : 27DE6D3B
CRC32 hash : 27DE6D3B
CRC32 hash (skip zero) : F3296C34
AccurateRip v1 signature : 156A546B
AccurateRip v2 signature : 5104671A
->Accurately ripped (v2, confidence 4/4)
Statistics
Read error : 0
Jitter error (maybe fixed) : 0
Retry sector count : 0
Damaged sector count : 0
Track 04
Filename : /konwersja/Omoide Hatoba - 金星 (1995) {Meldac MECI-28001} [FLAC]/04 - GO.flac
Track gain : -3.72 dB
Peak : 0.951874
CRC32 hash (test run) : F2E3FD85
CRC32 hash : F2E3FD85
CRC32 hash (skip zero) : 303A0BFF
AccurateRip v1 signature : 18EE9E36
AccurateRip v2 signature : 1CC81D3A
->Accurately ripped (v2, confidence 4/4)
Statistics
Read error : 0
Jitter error (maybe fixed) : 0
Retry sector count : 0
Damaged sector count : 0
Track 05
Filename : /konwersja/Omoide Hatoba - 金星 (1995) {Meldac MECI-28001} [FLAC]/05 - サテライト・グルーブ.flac
Track gain : -3.71 dB
Peak : 1.000000
CRC32 hash (test run) : 0EF10F14
CRC32 hash : 0EF10F14
CRC32 hash (skip zero) : EB225A0C
AccurateRip v1 signature : FB396802
AccurateRip v2 signature : 40EFB949
->Accurately ripped (v2, confidence 4/4)
Statistics
Read error : 0
Jitter error (maybe fixed) : 0
Retry sector count : 0
Damaged sector count : 0
Track 06
Filename : /konwersja/Omoide Hatoba - 金星 (1995) {Meldac MECI-28001} [FLAC]/06 - ヒューマン・トルネード.flac
Track gain : -6.13 dB
Peak : 0.950989
CRC32 hash (test run) : 7985601C
CRC32 hash : 7985601C
CRC32 hash (skip zero) : 90940678
AccurateRip v1 signature : 3ECE5C83
AccurateRip v2 signature : 8DF629C3
->Accurately ripped (v2, confidence 4/4)
Statistics
Read error : 0
Jitter error (maybe fixed) : 0
Retry sector count : 0
Damaged sector count : 0
Track 07
Filename : /konwersja/Omoide Hatoba - 金星 (1995) {Meldac MECI-28001} [FLAC]/07 - 日本解散.flac
Track gain : -2.67 dB
Peak : 0.880554
CRC32 hash (test run) : DCE512C0
CRC32 hash : DCE512C0
CRC32 hash (skip zero) : 26C320CC
AccurateRip v1 signature : 64F49ADD
AccurateRip v2 signature : 15DBAA07
->Accurately ripped (v2, confidence 4/4)
Statistics
Read error : 0
Jitter error (maybe fixed) : 0
Retry sector count : 0
Damaged sector count : 0
Track 08
Filename : /konwersja/Omoide Hatoba - 金星 (1995) {Meldac MECI-28001} [FLAC]/08 - 空中はB.flac
Track gain : -10.73 dB
Peak : 0.903168
CRC32 hash (test run) : F7F48874
CRC32 hash : F7F48874
CRC32 hash (skip zero) : 005E7C84
AccurateRip v1 signature : F3F0B1A3
AccurateRip v2 signature : 03CE6934
->Accurately ripped (v2, confidence 4/4)
Statistics
Read error : 0
Jitter error (maybe fixed) : 0
Retry sector count : 0
Damaged sector count : 0
Track 09
Filename : /konwersja/Omoide Hatoba - 金星 (1995) {Meldac MECI-28001} [FLAC]/09 - グッバイ!サブマリーン.flac
Track gain : -1.05 dB
Peak : 0.552399
CRC32 hash (test run) : 61705AED
CRC32 hash : 61705AED
CRC32 hash (skip zero) : BC9F456B
AccurateRip v1 signature : FB3ACFE5
AccurateRip v2 signature : F7CCB799
->Accurately ripped (v2, confidence 4/4)
Statistics
Read error : 0
Jitter error (maybe fixed) : 0
Retry sector count : 0
Damaged sector count : 0
Track 10
Filename : /konwersja/Omoide Hatoba - 金星 (1995) {Meldac MECI-28001} [FLAC]/10 - 幽霊山脈のテーマ.flac
Track gain : -0.12 dB
Peak : 1.000000
CRC32 hash (test run) : F91C8E01
CRC32 hash : F91C8E01
CRC32 hash (skip zero) : D754AC39
AccurateRip v1 signature : F179483D
AccurateRip v2 signature : 71A28650
->Accurately ripped (v2, confidence 4/4)
Statistics
Read error : 0
Jitter error (maybe fixed) : 0
Retry sector count : 0
Damaged sector count : 0
Track 11
Filename : /konwersja/Omoide Hatoba - 金星 (1995) {Meldac MECI-28001} [FLAC]/11 - クール.flac
Track gain : 1.77 dB
Peak : 0.835358
CRC32 hash (test run) : 2E0246E7
CRC32 hash : 2E0246E7
CRC32 hash (skip zero) : 88587324
AccurateRip v1 signature : BA444A9C
AccurateRip v2 signature : 7071F6E9
->Accurately ripped (v2, confidence 4/4)
Statistics
Read error : 0
Jitter error (maybe fixed) : 0
Retry sector count : 0
Damaged sector count : 0
Track 12
Filename : /konwersja/Omoide Hatoba - 金星 (1995) {Meldac MECI-28001} [FLAC]/12 - おやじ.flac
Track gain : -0.29 dB
Peak : 0.942902
CRC32 hash (test run) : C1478760
CRC32 hash : C1478760
CRC32 hash (skip zero) : B7D6ED42
AccurateRip v1 signature : 8EB8EFA2
AccurateRip v2 signature : 371B76B4
->Accurately ripped (v2, confidence 4/4)
Statistics
Read error : 0
Jitter error (maybe fixed) : 0
Retry sector count : 0
Damaged sector count : 0
Track 13
Filename : /konwersja/Omoide Hatoba - 金星 (1995) {Meldac MECI-28001} [FLAC]/13 - ロケンロー・ファンタジア.flac
Track gain : -5.71 dB
Peak : 0.926086
CRC32 hash (test run) : 659504D8
CRC32 hash : 659504D8
CRC32 hash (skip zero) : D1915DC7
AccurateRip v1 signature : 7B60E373
AccurateRip v2 signature : D1DED249
->Accurately ripped (v2, confidence 4/4)
Statistics
Read error : 0
Jitter error (maybe fixed) : 0
Retry sector count : 0
Damaged sector count : 0
Track 14
Filename : /konwersja/Omoide Hatoba - 金星 (1995) {Meldac MECI-28001} [FLAC]/14 - WE ARE ハロー.flac
Track gain : -5.68 dB
Peak : 0.936127
CRC32 hash (test run) : 9D886957
CRC32 hash : 9D886957
CRC32 hash (skip zero) : 85B9420D
AccurateRip v1 signature : 65323C1F
AccurateRip v2 signature : 5804E08E
->Accurately ripped (v2, confidence 4/4)
Statistics
Read error : 0
Jitter error (maybe fixed) : 0
Retry sector count : 0
Damaged sector count : 0
Track 15
Filename : /konwersja/Omoide Hatoba - 金星 (1995) {Meldac MECI-28001} [FLAC]/15 - ホワイト・アワー.flac
Track gain : -4.06 dB
Peak : 0.953094
CRC32 hash (test run) : CAB7572F
CRC32 hash : CAB7572F
CRC32 hash (skip zero) : 2D7BA43D
AccurateRip v1 signature : 5B46D745
AccurateRip v2 signature : 3E6EF994
->Accurately ripped (v2, confidence 4/4)
Statistics
Read error : 0
Jitter error (maybe fixed) : 0
Retry sector count : 0
Damaged sector count : 0
Track 16
Filename : /konwersja/Omoide Hatoba - 金星 (1995) {Meldac MECI-28001} [FLAC]/16 - アーメン.flac
Track gain : -4.13 dB
Peak : 0.891632
CRC32 hash (test run) : D5FDA0A0
CRC32 hash : D5FDA0A0
CRC32 hash (skip zero) : 3E006D5B
AccurateRip v1 signature : 159F16AC
AccurateRip v2 signature : 0C262038
->Accurately ripped (v2, confidence 4/4)
Statistics
Read error : 0
Jitter error (maybe fixed) : 0
Retry sector count : 0
Damaged sector count : 0
No errors occurred
End of status report
-----BEGIN XLD SIGNATURE-----
.nxoHC6FsMXUyblmWqyevAxK_9G5XS.L3ONcwAfKU6VWJn1qdwkW9xQ1gA0m_QQ4FaW33Zs0Wys5eLtdaFDjYamkANlBA7BHq8RgvTG
-----END XLD SIGNATURE-----

Содержание индексной карты (.CUE)

TITLE "金星"
PERFORMER "Omoide Hatoba"
CATALOG 4988030008554
REM GENRE "Alternative"
REM DATE "1995"
REM DISCNUMBER 1
REM TOTALDISCS 1
REM DISCID BA0A8F10
REM REPLAYGAIN_ALBUM_GAIN -5.88 dB
REM REPLAYGAIN_ALBUM_PEAK 1.000000
FILE "01 - 金星.flac" WAVE
TRACK 01 AUDIO
TITLE "金星"
PERFORMER "想い出波止場"
ISRC JPME09509001
REM COMMENT "1995 Meldac MECI-28001"
REM REPLAYGAIN_TRACK_GAIN -2.35 dB
REM REPLAYGAIN_TRACK_PEAK 0.431519
INDEX 01 00:00:00
FILE "02 - オルタナティヴ・ファンカホリック.flac" WAVE
TRACK 02 AUDIO
TITLE "オルタナティヴ・ファンカホリック"
PERFORMER "想い出波止場"
ISRC JPME09509002
REM COMMENT "1995 Meldac MECI-28001"
REM REPLAYGAIN_TRACK_GAIN -7.67 dB
REM REPLAYGAIN_TRACK_PEAK 1.000000
INDEX 01 00:00:00
FILE "03 - ギオン.flac" WAVE
TRACK 03 AUDIO
TITLE "ギオン"
PERFORMER "想い出波止場"
ISRC JPME09509003
REM COMMENT "1995 Meldac MECI-28001"
REM REPLAYGAIN_TRACK_GAIN -6.89 dB
REM REPLAYGAIN_TRACK_PEAK 0.892670
INDEX 01 00:00:00
FILE "04 - GO.flac" WAVE
TRACK 04 AUDIO
TITLE "GO"
PERFORMER "想い出波止場"
ISRC JPME09509004
REM COMMENT "1995 Meldac MECI-28001"
REM REPLAYGAIN_TRACK_GAIN -3.72 dB
REM REPLAYGAIN_TRACK_PEAK 0.951874
INDEX 01 00:00:00
FILE "05 - サテライト・グルーブ.flac" WAVE
TRACK 05 AUDIO
TITLE "サテライト・グルーブ"
PERFORMER "想い出波止場"
ISRC JPME09509005
REM COMMENT "1995 Meldac MECI-28001"
REM REPLAYGAIN_TRACK_GAIN -3.71 dB
REM REPLAYGAIN_TRACK_PEAK 1.000000
INDEX 01 00:00:00
FILE "06 - ヒューマン・トルネード.flac" WAVE
TRACK 06 AUDIO
TITLE "ヒューマン・トルネード"
PERFORMER "想い出波止場"
ISRC JPME09509006
REM COMMENT "1995 Meldac MECI-28001"
REM REPLAYGAIN_TRACK_GAIN -6.13 dB
REM REPLAYGAIN_TRACK_PEAK 0.950989
INDEX 01 00:00:00
FILE "07 - 日本解散.flac" WAVE
TRACK 07 AUDIO
TITLE "日本解散"
PERFORMER "想い出波止場"
ISRC JPME09509007
REM COMMENT "1995 Meldac MECI-28001"
REM REPLAYGAIN_TRACK_GAIN -2.67 dB
REM REPLAYGAIN_TRACK_PEAK 0.880554
INDEX 01 00:00:00
FILE "08 - 空中はB.flac" WAVE
TRACK 08 AUDIO
TITLE "空中はB"
PERFORMER "想い出波止場"
ISRC JPME09509008
REM COMMENT "1995 Meldac MECI-28001"
REM REPLAYGAIN_TRACK_GAIN -10.73 dB
REM REPLAYGAIN_TRACK_PEAK 0.903168
INDEX 01 00:00:00
FILE "09 - グッバイ!サブマリーン.flac" WAVE
TRACK 09 AUDIO
TITLE "グッバイ!サブマリーン"
PERFORMER "想い出波止場"
ISRC JPME09509009
REM COMMENT "1995 Meldac MECI-28001"
REM REPLAYGAIN_TRACK_GAIN -1.05 dB
REM REPLAYGAIN_TRACK_PEAK 0.552399
INDEX 01 00:00:00
FILE "10 - 幽霊山脈のテーマ.flac" WAVE
TRACK 10 AUDIO
TITLE "幽霊山脈のテーマ"
PERFORMER "想い出波止場"
ISRC JPME09509010
REM COMMENT "1995 Meldac MECI-28001"
REM REPLAYGAIN_TRACK_GAIN -0.12 dB
REM REPLAYGAIN_TRACK_PEAK 1.000000
INDEX 01 00:00:00
FILE "11 - クール.flac" WAVE
TRACK 11 AUDIO
TITLE "クール"
PERFORMER "想い出波止場"
ISRC JPME09509011
REM COMMENT "1995 Meldac MECI-28001"
REM REPLAYGAIN_TRACK_GAIN 1.77 dB
REM REPLAYGAIN_TRACK_PEAK 0.835358
INDEX 01 00:00:00
FILE "12 - おやじ.flac" WAVE
TRACK 12 AUDIO
TITLE "おやじ"
PERFORMER "想い出波止場"
ISRC JPME09509012
REM COMMENT "1995 Meldac MECI-28001"
REM REPLAYGAIN_TRACK_GAIN -0.29 dB
REM REPLAYGAIN_TRACK_PEAK 0.942902
INDEX 01 00:00:00
FILE "13 - ロケンロー・ファンタジア.flac" WAVE
TRACK 13 AUDIO
TITLE "ロケンロー・ファンタジア"
PERFORMER "想い出波止場"
ISRC JPME09509013
REM COMMENT "1995 Meldac MECI-28001"
REM REPLAYGAIN_TRACK_GAIN -5.71 dB
REM REPLAYGAIN_TRACK_PEAK 0.926086
INDEX 01 00:00:00
FILE "14 - WE ARE ハロー.flac" WAVE
TRACK 14 AUDIO
TITLE "WE ARE ハロー"
PERFORMER "想い出波止場"
ISRC JPME09509014
REM COMMENT "1995 Meldac MECI-28001"
REM REPLAYGAIN_TRACK_GAIN -5.68 dB
REM REPLAYGAIN_TRACK_PEAK 0.936127
INDEX 01 00:00:00
FILE "15 - ホワイト・アワー.flac" WAVE
TRACK 15 AUDIO
TITLE "ホワイト・アワー"
PERFORMER "想い出波止場"
ISRC JPME09509015
REM COMMENT "1995 Meldac MECI-28001"
REM REPLAYGAIN_TRACK_GAIN -4.06 dB
REM REPLAYGAIN_TRACK_PEAK 0.953094
INDEX 01 00:00:00
FILE "16 - アーメン.flac" WAVE
TRACK 16 AUDIO
TITLE "アーメン"
PERFORMER "想い出波止場"
ISRC JPME09509016
REM COMMENT "1995 Meldac MECI-28001"
REM REPLAYGAIN_TRACK_GAIN -4.13 dB
REM REPLAYGAIN_TRACK_PEAK 0.891632
INDEX 01 00:00:00

Лог проверки качества

fooCDtect - foobar2000 + auCDtect, baralgin.
auCDtect: CD records authenticity detector, version 0.8.2
Copyright (c) 2004 Oleg Berngardt. All rights reserved.
Copyright (c) 2004 Alexander Djourik. All rights reserved.
mode: 0
===========================================
Track: 01. 金星
Quality: CDDA 100%
===========================================
Track: 02. オルタナティヴ・ファンカホリック
Quality: CDDA 100%
===========================================
Track: 03. ギオン
Quality: CDDA 100%
===========================================
Track: 04. GO
Quality: CDDA 100%
===========================================
Track: 05. サテライト・グルーブ
Quality: CDDA 100%
===========================================
Track: 06. ヒューマン・トルネード
Quality: CDDA 100%
===========================================
Track: 07. 日本解散
Quality: CDDA 100%
===========================================
Track: 08. 空中はB
Quality: CDDA 100%
===========================================
Track: 09. グッバイ!サブマリーン
Quality: CDDA 100%
===========================================
Track: 10. 幽霊山脈のテーマ
Quality: CDDA 100%
===========================================
Track: 11. クール
Quality: CDDA 100%
===========================================
Track: 12. おやじ
Quality: CDDA 100%
===========================================
Track: 13. ロケンロー・ファンタジア
Quality: CDDA 100%
===========================================
Track: 14. WE ARE ハロー
Quality: CDDA 100%
===========================================
Track: 15. ホワイト・アワー
Quality: CDDA 100%
===========================================
Track: 16. アーメン
Quality: CDDA 100%
===========================================

Об исполнителе (группе)

(1987 – present)
Omoide Hatoba (想い出波止場 or 思い出波止場) is a japanese group founded by Boredoms guitarist Seiichi Yamamoto. Omoide Hatoba make some of the most interesting, ineffable experiments in sound available. Seiichi Yamamoto is also working now on another side project, ROVO.
Main Members are:
Seiichi Yamamoto: Guitar, Vocals, Synthesizer
Atsushi Tsuyama: Bass, Vocals, Bass Harmonica, Drums
Chu Hasegawa: Vocals, etc.
[cybertorrent.ru].t41628.torrent 
Торрент: Зарегистрирован [ 2018-03-19 15:15 ] · 25F8198C8D381FDF7C28912C139D57740F4A59E6

Скачать .torrent

Скачать

13 KB

Статус: проверено
Скачан: 0 раз
Размер: 284 MB
Профиль [ЛС]
Показать сообщения:    

Текущее время: 22-Май 23:25

Часовой пояс: UTC ± 0



Вы не можете начинать темы
Вы не можете отвечать на сообщения
Вы не можете редактировать свои сообщения
Вы не можете удалять свои сообщения
Вы не можете голосовать в опросах
Вы не можете прикреплять файлы к сообщениям
Вы можете скачивать файлы