Статистика раздачи
Размер:  239 MB   |    Зарегистрирован:  1 месяц 5 дней   |    Скачан:  0 раз

Полного источника не было: Никогда

 
   
 
 

Влад ®

Пол:
Не указан
Стаж:
2 месяца 9 дней
Сообщений:
180

The Howling Void - The Darkness At The Edge Of Dawn- Жанр: Atmospheric Doom Metal
Носитель: CD
Год издания: 2017
Издатель (лейбл): Avantgarde Music
Номер по каталогу: AV329
Страна: USA
Аудиокодек: FLAC (*.flac)
Тип рипа: image+.cue
Битрейт аудио: lossless
Продолжительность: 00:38:51
Источник (релизер): свой рип
Наличие сканов в содержимом раздачи: да
Треклист:
01. Distant Shores (7:49)
02. A Seed On Stone (8:32)
03. The Darkness At The Edge Of Dawn (9:11)
04. Silence And The Setting Sun (7:06)
05. When I Am Forgotten (6:12)

Лог создания рипа

Exact Audio Copy V1.3 from 2. September 2016
EAC extraction logfile from 13. March 2018, 4:12
The Howling Void / Darkness At The Edge Of Dawn
Used drive : ATAPI iHAS524 B Adapter: 1 ID: 0
Read mode : Secure
Utilize accurate stream : Yes
Defeat audio cache : Yes
Make use of C2 pointers : No
Read offset correction : 6
Overread into Lead-In and Lead-Out : No
Fill up missing offset samples with silence : Yes
Delete leading and trailing silent blocks : No
Null samples used in CRC calculations : Yes
Used interface : Native Win32 interface for Win NT & 2000
Used output format : User Defined Encoder
Selected bitrate : 128 kBit/s
Quality : High
Add ID3 tag : No
Command line compressor : C:\Program Files (x86)\Exact Audio Copy\Flac\flac.exe
Additional command line options : -V -8 %source%
TOC of the extracted CD
Track | Start | Length | Start sector | End sector
---------------------------------------------------------
1 | 0:00.00 | 7:49.21 | 0 | 35195
2 | 7:49.21 | 8:32.12 | 35196 | 73607
3 | 16:21.33 | 9:11.20 | 73608 | 114952
4 | 25:32.53 | 7:05.40 | 114953 | 146867
5 | 32:38.18 | 6:12.28 | 146868 | 174795
Range status and errors
Selected range
Filename E:\Music\jagdpanzer\The Howling Void (2017) - Darkness At The Edge Of Dawn\The Howling Void - Darkness At The Edge Of Dawn.wav
Peak level 100.0 %
Extraction speed 5.2 X
Range quality 100.0 %
Test CRC 03BE762B
Copy CRC 03BE762B
Copy OK
No errors occurred
AccurateRip summary
Track 1 not present in database
Track 2 not present in database
Track 3 not present in database
Track 4 not present in database
Track 5 not present in database
None of the tracks are present in the AccurateRip database
End of status report
---- CUETools DB Plugin V2.1.6
[CTDB TOCID: D0Ep9nhyhT3VeT8cqs9EdVRqcoA-] disk not present in database
Submit result: D0Ep9nhyhT3VeT8cqs9EdVRqcoA- has been uploaded
==== Log checksum 84A61A8020C8B0D9341441070F9CC4DEA5804F6430619F1252F7C73866178A74 ====

Лог проверки качества

-----------------------
DON'T MODIFY THIS FILE
-----------------------
PERFORMER: auCDtect Task Manager, ver. 1.6.0 RC1 build 1.6.0.1
Copyright (c) 2008-2010 y-soft. All rights reserved
http://y-soft.org
ANALYZER: auCDtect: CD records authenticity detector, version 0.8.2
Copyright (c) 2004 Oleg Berngardt. All rights reserved.
Copyright (c) 2004 Alexander Djourik. All rights reserved.
FILE: The Howling Void - Darkness At The Edge Of Dawn.flac
Size: 231302081 Hash: 4FB3F40049C6C21B52AFE63C709A55BC Accuracy: -m0
Conclusion: CDDA 100%
Signature: 0DE571995147B4C6FDBB2E530F13CE9E6C401C17

Скриншот спектра частот

[cybertorrent.ru].t41631.torrent 
Торрент: Зарегистрирован [ 2018-03-19 15:15 ] · 951B3D9F7C1FDDC674ED1D5710B36A8B0F1B6C25

Скачать .torrent

Скачать

20 KB

Статус: проверено
Скачан: 0 раз
Размер: 239 MB
Профиль [ЛС]
Показать сообщения:    

Текущее время: 24-Апр 18:19

Часовой пояс: UTC ± 0



Вы не можете начинать темы
Вы не можете отвечать на сообщения
Вы не можете редактировать свои сообщения
Вы не можете удалять свои сообщения
Вы не можете голосовать в опросах
Вы не можете прикреплять файлы к сообщениям
Вы можете скачивать файлы