Статистика раздачи
Размер:  363 MB   |    Зарегистрирован:  1 месяц 4 дня   |    Скачан:  0 раз

Полного источника не было: Никогда

Личеров:  4  [  0 KB/s  ]  
 
   
 
 

MaX ®

Пол:
Не указан
Стаж:
2 месяца 6 дней
Сообщений:
103

F.Couperin - L'Apothéose de Lully; L'Apothéose de Corelli; Concert "Dans le goût théatral"
Жанр: Classical orchestral
Страна-производитель диска: Made in Germany
Год издания диска: 1990
Издатель (лейбл): Erato
Номер по каталогу: 2292-45011-2
Дата записи: 1988
Аудиокодек: FLAC
Тип рипа: image+.cue
Битрейт аудио: lossless
Продолжительность: 70'07
Источник: релизер
сайт-источник/ник/другое: odeonmusic
Наличие сканов в содержимом раздачи: да

Треклист

Le Parnasse Ou L'Apothéose De Corelli – Grande Sonade, En Trio 14:23
1 Corelli Au Piéd Du Parnasse Prie Les Muses De Le Recevoir Parmi Elles. 2:14
2 Corelli Charmé De La Bonne Réception Qu'on Lui Fait Au Parnasse, En Marque Sa Joye. Il Continuë Avec Ceux Qui L'accompagnent. 2:01
3 Corelli Buvant À La Source D'hypocrêne. Sa Troupe Continue. 2:31
4 Entouziasme De Corelli Causé Par Les Eaux D'hypocréne. 4:32
5 Les Muses Reveillent Corelli, Et Le Placent Auprês D'Apollon. 0:41
6 Remerciment De Corelli. 2:12
Concert "Dans Le Goût Théatral" (Version Orchestrale Réalisée Par Peter Holman) 21:27
7 Ouverture 2:27
8 Grande Ritournéle 3:13
9 Noblement 2:11
10 Air Tendre 1:27
11 Air Léger 1:06
12 Loure 2:25
13 Air Animé 0:58
14 Sarabande 1:47
15 Air Léger 1:18
16 Air Tendre 3:18
17 Air De Baccantes 1:00
Concert Instrumental Sous Le Titre D'Apothéose – Composé À La Mémoire Immortelle De L'incomparable Monsieur De Lully 34:04
18 Lully Aux Champs Elisés: Concertant Avec Les Ombres Liriques 2:53
19 Air Pour Les Mêmes 2:42
20 Vol De Mercure Aux Champs Elisés, Pour Avertir Qu'Apollon Y Va Descendre 0:29
21 Descente D'Apollon: Qui Vient Offrir Son Violon À Lully; Et Sa Place Au Parnasse 2:41
22 Rumeur Souteraine: Causée Par Les Auteurs Contemporains De Lulli 0:26
23 Plaintes Des Mêmes: Pour Des Flûtes, Ou Des Violons Tres Adoucis 3:41
24 Enlévement De Lulli Au Parnasse 1:14
25 Accüeil Entre-Doux, Et Agard, Fait À Lulli Par Corelli, Et Par Les Muses Jtaliénes 2:16
26 Remerciment De Lulli: À Apollon 3:15
Apollon, Persuade Lulli, Et Corelli, Que La Réünion Des Goûts François Et Italien Doit Faire La Perfection De La Musique – Essai En Forme D'Ouverture
27 Lulli Et Les Muses Françoises - Corelli Et Les Muses Italiénes 2:51
28 Lulli, Joüant Le Sujet; Et Corelli L'acompagnant / Corelli Joüant Le Sujet À Son Tour, Que Lulli Acompagne 4:05
La Paix De Parnasse Faite Aux Conditions Sur La Remontrance Des Muses Françoises Que Lorsqu'on Y Parleroit Leur Langue, On Diroit Dorénavant Sonade, Cantade; Ainsi Qu'on Pronance Ballade, Sérénade, Etc.
29 Sonade En Trio 2:12
30 Saillie 1:31
31 Rondement 1:41
32 Vivement 1:41

Исполнители

François Couperin (1668-1733)
Le Parnasse ou L'Apothéose de Corelli, Grande Sonate en Trio
Concert "Dans le goût théatral"
Concert Instrumental sous le titre d'Aphotéose
Alison Bury - violin
Elizabeth Wilcock - violin
Richard Campbell - viola da gamba
Alastair Ross - harpsichord
English Baroque Soloists [on period instruments]
John Eliot Gardiner - conductor
Arranged By [For Orchestra] – Peter Holman (tracks: 7 to 17)
Bassoon – Alastair Mitchell, Philip Turbett
Flute – Janet See, Rachel Beckett
Harpsichord – Alastair Ross
Oboe – Anthony Robson, Richard Earle
Viol [Basse De Violon] – Angela East, Christopher Poffley, Mark Caudle, Peter Buckoke, Richard Campbell, William Hunt
Viola – Annette Isserlis, Pamela Cresswell*, Rachel Isserlis, Stephen Jones (7)
Violin – Alison Bury, Desmond Heath, Elizabeth Wilcock, Ellen O'Dell, Henrietta Wayne, Hildburg Williams, Maya Homburger, Pauline Nobes, Peter Lissauer, Susan Carpenter Jacobs*
Recording: 06/1988, Rosslyn Hill Chapel, London

Лог создания рипа

Exact Audio Copy V1.0 beta 3 from 29. August 2011
EAC extraction logfile from 29. September 2012, 22:33
John Eliot Gardner / Couperin - Orchestral works - Gardiner
Used drive : TSSTcorpCDDVDW TS-L633M Adapter: 1 ID: 0
Read mode : Secure
Utilize accurate stream : Yes
Defeat audio cache : Yes
Make use of C2 pointers : No
Read offset correction : 6
Overread into Lead-In and Lead-Out : No
Fill up missing offset samples with silence : Yes
Delete leading and trailing silent blocks : No
Null samples used in CRC calculations : Yes
Used interface : Native Win32 interface for Win NT & 2000
Used output format : User Defined Encoder
Selected bitrate : 320 kBit/s
Quality : High
Add ID3 tag : No
Command line compressor : C:\Program Files\Exact Audio Copy\Flac\flac.exe
Additional command line options : -8 -V -T "TITLE=%title%" -T "ARTIST=%artist%" -T "ALBUMARTIST=%albumartist%" -T "ALBUM=%albumtitle%" -T "DATE=%year%" -T "TRACKNUMBER=%tracknr%" -T "TRACKTOTAL=%numtracks%" -T "GENRE=%genre%" -T "COMMENT=%comment%" -T "PERFORMER=%albuminterpret%" -T "COMPOSER=%composer%" %source% -o %dest%
TOC of the extracted CD
Track | Start | Length | Start sector | End sector
---------------------------------------------------------
1 | 0:00.00 | 2:17.05 | 0 | 10279
2 | 2:17.05 | 2:03.68 | 10280 | 19572
3 | 4:20.73 | 2:33.10 | 19573 | 31057
4 | 6:54.08 | 4:34.00 | 31058 | 51607
5 | 11:28.08 | 0:44.37 | 51608 | 54944
6 | 12:12.45 | 2:19.55 | 54945 | 65424
7 | 14:32.25 | 2:28.65 | 65425 | 76589
8 | 17:01.15 | 3:15.28 | 76590 | 91242
9 | 20:16.43 | 2:13.47 | 91243 | 101264
10 | 22:30.15 | 1:29.33 | 101265 | 107972
11 | 23:59.48 | 1:06.67 | 107973 | 112989
12 | 25:06.40 | 2:26.43 | 112990 | 123982
13 | 27:33.08 | 0:58.70 | 123983 | 128402
14 | 28:32.03 | 1:48.27 | 128403 | 136529
15 | 30:20.30 | 1:18.33 | 136530 | 142412
16 | 31:38.63 | 3:20.60 | 142413 | 157472
17 | 34:59.48 | 1:07.60 | 157473 | 162557
18 | 36:07.33 | 2:54.52 | 162558 | 175659
19 | 39:02.10 | 2:44.10 | 175660 | 187969
20 | 41:46.20 | 0:30.15 | 187970 | 190234
21 | 42:16.35 | 2:41.25 | 190235 | 202334
22 | 44:57.60 | 0:29.40 | 202335 | 204549
23 | 45:27.25 | 3:42.58 | 204550 | 221257
24 | 49:10.08 | 1:15.62 | 221258 | 226944
25 | 50:25.70 | 2:18.00 | 226945 | 237294
26 | 52:43.70 | 3:17.48 | 237295 | 252117
27 | 56:01.43 | 2:52.20 | 252118 | 265037
28 | 58:53.63 | 4:08.07 | 265038 | 283644
29 | 63:01.70 | 2:15.40 | 283645 | 293809
30 | 65:17.35 | 1:30.53 | 293810 | 300612
31 | 66:48.13 | 1:42.15 | 300613 | 308277
32 | 68:30.28 | 1:37.42 | 308278 | 315594
Range status and errors
Selected range
Filename C:\Users\JS\Desktop\Couperin\Couperin - Orchestral works - Gardiner.wav
Peak level 94.4 %
Extraction speed 3.3 X
Range quality 99.9 %
Test CRC 089A2F4E
Copy CRC 089A2F4E
Copy OK
No errors occurred
AccurateRip summary
Track 1 accurately ripped (confidence 3) [A66AC9F9] (AR v1)
Track 2 accurately ripped (confidence 3) [FE5F2EC5] (AR v1)
Track 3 accurately ripped (confidence 3) [39951FDA] (AR v1)
Track 4 accurately ripped (confidence 3) [28738CF6] (AR v1)
Track 5 accurately ripped (confidence 3) [0CECB9C9] (AR v1)
Track 6 accurately ripped (confidence 3) [FFBC6545] (AR v1)
Track 7 accurately ripped (confidence 3) [5DE3F10D] (AR v1)
Track 8 accurately ripped (confidence 3) [B244C714] (AR v1)
Track 9 accurately ripped (confidence 3) [D207B124] (AR v1)
Track 10 accurately ripped (confidence 3) [ACC9F78E] (AR v1)
Track 11 accurately ripped (confidence 3) [0FF6FB83] (AR v1)
Track 12 accurately ripped (confidence 3) [ACBC1327] (AR v1)
Track 13 accurately ripped (confidence 3) [EBAAE981] (AR v1)
Track 14 accurately ripped (confidence 3) [350AEACA] (AR v1)
Track 15 accurately ripped (confidence 3) [EC031C0E] (AR v1)
Track 16 accurately ripped (confidence 3) [6200AF0E] (AR v1)
Track 17 accurately ripped (confidence 3) [789FA04F] (AR v1)
Track 18 accurately ripped (confidence 3) [3F5C4D46] (AR v1)
Track 19 accurately ripped (confidence 3) [49A46254] (AR v1)
Track 20 accurately ripped (confidence 3) [48BD791B] (AR v1)
Track 21 accurately ripped (confidence 3) [733A6622] (AR v1)
Track 22 accurately ripped (confidence 3) [C784782B] (AR v1)
Track 23 accurately ripped (confidence 3) [189DB840] (AR v1)
Track 24 accurately ripped (confidence 3) [390C73ED] (AR v1)
Track 25 accurately ripped (confidence 3) [328E2172] (AR v1)
Track 26 accurately ripped (confidence 3) [30C9FCF2] (AR v1)
Track 27 accurately ripped (confidence 3) [C45253E1] (AR v1)
Track 28 accurately ripped (confidence 3) [2237A711] (AR v1)
Track 29 accurately ripped (confidence 3) [CC96C330] (AR v1)
Track 30 accurately ripped (confidence 3) [4A2D16D1] (AR v1)
Track 31 accurately ripped (confidence 3) [FC5E22C0] (AR v1)
Track 32 accurately ripped (confidence 3) [A01C20BF] (AR v1)
All tracks accurately ripped
End of status report

Содержание индексной карты (.CUE)

REM GENRE Classical
REM DISCID B5106F20
REM COMMENT "ExactAudioCopy v1.0b3"
PERFORMER "English Baroque Soloists, John Eliot Gardner"
TITLE "Couperin - Orchestral works - Gardiner"
FILE "Couperin - Orchestral works - Gardiner.flac" WAVE
TRACK 01 AUDIO
TITLE "Le Parnasse ou L'Apothéose de Corelli - Grande Sonade, en Trio. Corelli au piéd du Parnasse prie les Muses de le Recevoir parmi elles."
PERFORMER "English Baroque Soloists, John Eliot Gardner"
INDEX 01 00:00:00
TRACK 02 AUDIO
TITLE "Corelli Charmé de la bonne réception qu'on lui fait au Parnasse, en marque Sa joye. Il continuë avec ceux qui L'accompagnent"
PERFORMER "English Baroque Soloists, John Eliot Gardner"
INDEX 00 02:15:68
INDEX 01 02:17:05
TRACK 03 AUDIO
TITLE "Corelli buvant à la Source D'hypocrêne. Sa Troupe continue."
PERFORMER "English Baroque Soloists, John Eliot Gardner"
INDEX 00 04:20:60
INDEX 01 04:20:73
TRACK 04 AUDIO
TITLE "Entouziasme de Corelli Causé par les eaux D'hypocréne. / Corelli, aprés son Entouziasme S'endort ; et sa Troupe jouë le Sommeil Suivant très doux"
PERFORMER "English Baroque Soloists, John Eliot Gardner"
INDEX 00 06:53:10
INDEX 01 06:54:08
TRACK 05 AUDIO
TITLE "Les Muses reveillent Corelli, Et le placent auprês D'Apollon."
PERFORMER "English Baroque Soloists, John Eliot Gardner"
INDEX 00 11:25:43
INDEX 01 11:28:08
TRACK 06 AUDIO
TITLE "Remerciement de Corelli."
PERFORMER "English Baroque Soloists, John Eliot Gardner"
INDEX 00 12:11:73
INDEX 01 12:12:45
TRACK 07 AUDIO
TITLE "Concert “Dans le goût théatral” (Version orchestrale réalisée par Peter Holman). Ouverture"
PERFORMER "English Baroque Soloists, John Eliot Gardner"
INDEX 00 14:23:45
INDEX 01 14:32:25
TRACK 08 AUDIO
TITLE "Grande Ritournéle"
PERFORMER "English Baroque Soloists, John Eliot Gardner"
INDEX 00 17:01:05
INDEX 01 17:01:15
TRACK 09 AUDIO
TITLE "Noblement"
PERFORMER "English Baroque Soloists, John Eliot Gardner"
INDEX 00 20:15:53
INDEX 01 20:16:43
TRACK 10 AUDIO
TITLE "Air Tendre"
PERFORMER "English Baroque Soloists, John Eliot Gardner"
INDEX 00 22:29:48
INDEX 01 22:30:15
TRACK 11 AUDIO
TITLE "Air léger"
PERFORMER "English Baroque Soloists, John Eliot Gardner"
INDEX 00 23:58:28
INDEX 01 23:59:48
TRACK 12 AUDIO
TITLE "Loure"
PERFORMER "English Baroque Soloists, John Eliot Gardner"
INDEX 00 25:04:73
INDEX 01 25:06:40
TRACK 13 AUDIO
TITLE "Air animé"
PERFORMER "English Baroque Soloists, John Eliot Gardner"
INDEX 00 27:32:73
INDEX 01 27:33:08
TRACK 14 AUDIO
TITLE "Sarabande"
PERFORMER "English Baroque Soloists, John Eliot Gardner"
INDEX 01 28:32:03
TRACK 15 AUDIO
TITLE "Air léger"
PERFORMER "English Baroque Soloists, John Eliot Gardner"
INDEX 00 30:19:45
INDEX 01 30:20:30
TRACK 16 AUDIO
TITLE "Air tendre"
PERFORMER "English Baroque Soloists, John Eliot Gardner"
INDEX 00 31:37:70
INDEX 01 31:38:63
TRACK 17 AUDIO
TITLE "Air de Baccantes"
PERFORMER "English Baroque Soloists, John Eliot Gardner"
INDEX 00 34:58:35
INDEX 01 34:59:48
TRACK 18 AUDIO
TITLE "Concert instrumental sous le titre d'Apothéose - Composé à la mémoire immortelle de l'incomparable Monsieur de Lully. Lully aux Champs Elisés : Concertant avec les Ombres Liriques"
PERFORMER "English Baroque Soloists, John Eliot Gardner"
INDEX 00 35:59:63
INDEX 01 36:07:33
TRACK 19 AUDIO
TITLE "Air pour les mêmes"
PERFORMER "English Baroque Soloists, John Eliot Gardner"
INDEX 00 39:01:23
INDEX 01 39:02:10
TRACK 20 AUDIO
TITLE "Vol de Mercure aux Champs Elisés, pour avertir qu'Apollon y va descendre"
PERFORMER "English Baroque Soloists, John Eliot Gardner"
INDEX 00 41:45:55
INDEX 01 41:46:20
TRACK 21 AUDIO
TITLE "Descente d'Apollon : Qui vient offrir son Violon à Lully ; et sa place au Parnasse"
PERFORMER "English Baroque Soloists, John Eliot Gardner"
INDEX 01 42:16:35
TRACK 22 AUDIO
TITLE "Rumeur souteraine : Causée par les auteurs Contemporains de Lulli"
PERFORMER "English Baroque Soloists, John Eliot Gardner"
INDEX 00 44:57:05
INDEX 01 44:57:60
TRACK 23 AUDIO
TITLE "Plaintes des Mêmes : Pour des Flûtes, ou des Violons tres adoucis"
PERFORMER "English Baroque Soloists, John Eliot Gardner"
INDEX 00 45:24:48
INDEX 01 45:27:25
TRACK 24 AUDIO
TITLE "Enlévement de Lulli au Parnasse"
PERFORMER "English Baroque Soloists, John Eliot Gardner"
INDEX 00 49:08:68
INDEX 01 49:10:08
TRACK 25 AUDIO
TITLE "Accüeil entre-Doux, et Agard, fait à Lulli par Corelli, et par les Muses jtaliénes"
PERFORMER "English Baroque Soloists, John Eliot Gardner"
INDEX 00 50:25:65
INDEX 01 50:25:70
TRACK 26 AUDIO
TITLE "Remerciment de Lulli : à Apollon"
PERFORMER "English Baroque Soloists, John Eliot Gardner"
INDEX 00 52:43:10
INDEX 01 52:43:70
TRACK 27 AUDIO
TITLE "Apollon, persuade Lulli, et Corelli, Que la réünion des Goûts François et Italien doit faire la perfection de la Musique - Essai en Forme d'Ouverture. Lulli et les Muses Françoises - Corelli et les Muses Italiénes"
PERFORMER "English Baroque Soloists, John Eliot Gardner"
INDEX 00 55:59:68
INDEX 01 56:01:43
TRACK 28 AUDIO
TITLE "Lulli, joüant le Sujet ; et Corelli l'acompagnant / Corelli joüant le Sujet à son tour, que Lulli acompagne."
PERFORMER "English Baroque Soloists, John Eliot Gardner"
INDEX 00 58:53:18
INDEX 01 58:53:63
TRACK 29 AUDIO
TITLE "La Paix du Parnasse faite aux Conditions Sur la Remontrance des Muses françoises que lorsqu'on y parleroit leur langue, on diroit dorénavant Sonade, Cantade ; ainsi qu'on pronance ballade, Sérénade, etc. Sonade en Trio"
PERFORMER "English Baroque Soloists, John Eliot Gardner"
INDEX 00 62:59:30
INDEX 01 63:01:70
TRACK 30 AUDIO
TITLE "Saillie"
PERFORMER "English Baroque Soloists, John Eliot Gardner"
INDEX 00 65:16:15
INDEX 01 65:17:35
TRACK 31 AUDIO
TITLE "Rondement"
PERFORMER "English Baroque Soloists, John Eliot Gardner"
INDEX 01 66:48:13
TRACK 32 AUDIO
TITLE "Vivement"
PERFORMER "English Baroque Soloists, John Eliot Gardner"
INDEX 01 68:30:28
[cybertorrent.ru].t41632.torrent 
Торрент: Зарегистрирован [ 2018-03-19 15:15 ] · C702823199D8B4441850F9EE433F76CB65F7731C

Скачать .torrent

Скачать

16 KB

Статус: проверено
Скачан: 0 раз
Размер: 363 MB
Профиль [ЛС]
Показать сообщения:    

Текущее время: 24-Апр 14:15

Часовой пояс: UTC ± 0



Вы не можете начинать темы
Вы не можете отвечать на сообщения
Вы не можете редактировать свои сообщения
Вы не можете удалять свои сообщения
Вы не можете голосовать в опросах
Вы не можете прикреплять файлы к сообщениям
Вы можете скачивать файлы