Статистика раздачи
Размер:  238 MB   |    Зарегистрирован:  1 месяц 4 дня   |    Скачан:  0 раз

Полного источника не было: Никогда

 
   
 
 

Серёга ®

Пол:
Не указан
Стаж:
2 месяца 8 дней
Сообщений:
299

The Love Light Orchestra / The Love Light Orchestra (Live)
Жанр: Memphis Blues
Носитель: WEB
Год издания: 2017
Издатель (лейбл): Blue Barrel Records
Страна исполнителя (группы): USA
Аудиокодек: FLAC (*.flac)
Тип рипа: tracks
Битрейт аудио: lossless
Продолжительность: 40:16
Наличие сканов в содержимом раздачи: front
Треклист:
01 See Why I Love You 02:31
02 Bad Breaks 04:23
03 I've Been Wrong So Long 02:24
04 It's Your Voodoo Working 03:36
05 Sometimes 03:37
06 What About Love 03:34
07 Poverty 02:35
08 Lonesome And High 03:49
09 Singin' For My Supper 03:02
10 This Little Love Of Mine 03:19
11 Please Send Me Someone To Love 03:17
12 Love And Happiness 04:09

Динамический диапазон

foobar2000 1.3.16 / Dynamic Range Meter 1.1.1
log date: 2018-03-04 17:19:04
--------------------------------------------------------------------------------
Analyzed: The Love Light Orchestra & John Nemeth / The Love Light Orchestra (Live)
--------------------------------------------------------------------------------
DR Peak RMS Duration Track
--------------------------------------------------------------------------------
DR10 -0.30 dB -12.43 dB 2:31 01-See Why I Love You
DR11 -0.30 dB -12.86 dB 4:23 02-Bad Breaks
DR10 -0.30 dB -12.60 dB 2:24 03-I've Been Wrong So Long
DR12 -0.30 dB -13.34 dB 3:36 04-It's Your Voodoo Working
DR11 -0.30 dB -13.05 dB 3:37 05-Sometimes
DR11 -0.30 dB -12.96 dB 3:34 06-What About Love
DR11 -0.30 dB -12.94 dB 2:35 07-Poverty
DR9 -0.30 dB -10.90 dB 3:49 08-Lonesome And High
DR11 -0.30 dB -12.74 dB 3:02 09-Singin' For My Supper
DR11 -0.30 dB -13.23 dB 3:19 10-This Little Love Of Mine
DR12 -0.30 dB -14.72 dB 3:17 11-Please Send Me Someone To Love
DR12 -0.30 dB -14.22 dB 4:09 12-Love And Happiness
--------------------------------------------------------------------------------
Number of tracks: 12
Official DR value: DR11
Samplerate: 44100 Hz
Channels: 2
Bits per sample: 16
Bitrate: 774 kbps
Codec: FLAC

Лог проверки качества

PERFORMER: auCDtect Task Manager, ver. 1.6.0 RC1 build 1.6.0.1
Copyright (c) 2008-2010 y-soft. All rights reserved
http://y-soft.org
ANALYZER: auCDtect: CD records authenticity detector, version 0.8.2
Copyright (c) 2004 Oleg Berngardt. All rights reserved.
Copyright (c) 2004 Alexander Djourik. All rights reserved.
FILE: 01 - See Why I Love You.flac
Size: 16638801 Hash: AEF693A5149E3F05C7C85146BFCF52E1 Accuracy: -m0
Conclusion: CDDA 100%
Signature: 84B979CF019AC06FAFF76C8B0175B43318D8974B
FILE: 02 - Bad Breaks.flac
Size: 28426086 Hash: 23367541723D0E9196F520734828433C Accuracy: -m0
Conclusion: CDDA 100%
Signature: CF4C03F336F0876E672E62C4EFBAFCC23AA25C6E
FILE: 03 - I've Been Wrong So Long.flac
Size: 14155172 Hash: 763C71C5803A63710FC6D72F5C8A594F Accuracy: -m0
Conclusion: CDDA 100%
Signature: D8091541F3566D6CCB3B5F95B0BB3A239893E91D
FILE: 04 - It's Your Voodoo Working.flac
Size: 22620074 Hash: 02BA064E751F7C99806EF389A3194D8D Accuracy: -m0
Conclusion: CDDA 100%
Signature: AD99BB3669DC153D6C128EBF4374E44CFD953059
FILE: 05 - Sometimes.flac
Size: 23114123 Hash: 74DB620FE3AA2F9825121564D1347586 Accuracy: -m0
Conclusion: CDDA 100%
Signature: 50F7D3A055A4721819D4042E59A7897978007063
FILE: 06 - What About Love.flac
Size: 22829056 Hash: 44D0B542D3FF5EAA900C4274477BA899 Accuracy: -m0
Conclusion: CDDA 100%
Signature: B235E0BEFBAC24637508E60E17FC4C75F30E4DAF
FILE: 07 - Poverty.flac
Size: 15853464 Hash: D1B8F284834CEF6703F9CA9431FFF7AB Accuracy: -m0
Conclusion: CDDA 100%
Signature: 735B45594D1ADAFB2B4FCDCF871CA9873C0E52AA
FILE: 08 - Lonesome And High.flac
Size: 24786196 Hash: BAEE7EE239016E502033C58E5A25FB2B Accuracy: -m0
Conclusion: CDDA 100%
Signature: DBDDE9DC8EE8858F341E1CC3FC847E7A1B43A9D2
FILE: 09 - Singin' For My Supper.flac
Size: 19616320 Hash: DFC34D82169609D161D5C32C102D05B3 Accuracy: -m0
Conclusion: CDDA 100%
Signature: DF7F6D0320954DCEEC8F07443B214B62E6B6EFCC
FILE: 10 - This Little Love Of Mine.flac
Size: 18036048 Hash: 168F2458190C5178F4286A75E1A901A5 Accuracy: -m0
Conclusion: CDDA 100%
Signature: 82217DE624641A4A523F2F6D550FF011B2D0A072
FILE: 11 - Please Send Me Someone To Love.flac
Size: 18185895 Hash: B84B1223A62887B53DA397DA2EE54AAB Accuracy: -m0
Conclusion: CDDA 100%
Signature: 1A3EA39F1A5B156700D305A464F48BAA735874D6
FILE: 12 - Love And Happiness.flac
Size: 24401194 Hash: 7277C714D4DADC13ECA12BFDAC060123 Accuracy: -m0
Conclusion: CDDA 100%
Signature: AAFD5A9EE0AFF464D5D9A30605F24B31ACCCB3A0

Скриншот спектра частот

[cybertorrent.ru].t41633.torrent 
Торрент: Зарегистрирован [ 2018-03-19 15:15 ] · B6E16332DCA5010B1325EE2DE605B3131DDFAE30

Скачать .torrent

Скачать

20 KB

Статус: проверено
Скачан: 0 раз
Размер: 238 MB
Профиль [ЛС]
Показать сообщения:    

Текущее время: 24-Апр 04:48

Часовой пояс: UTC ± 0



Вы не можете начинать темы
Вы не можете отвечать на сообщения
Вы не можете редактировать свои сообщения
Вы не можете удалять свои сообщения
Вы не можете голосовать в опросах
Вы не можете прикреплять файлы к сообщениям
Вы можете скачивать файлы