Статистика раздачи
Размер:  325 MB   |    Зарегистрирован:  1 месяц 4 дня   |    Скачан:  0 раз

Полного источника не было: Никогда

 
   
 
 

Серёга ®

Пол:
Не указан
Стаж:
2 месяца 9 дней
Сообщений:
299

Myles Goodwyn / Myles Goodwyn And Friends Of The Blues
Жанр: Guitar Blues/Modern Elrctric
Носитель: WEB
Год издания: 2018
Издатель (лейбл): Linus Entertainment
Страна исполнителя (группы): Canada
Аудиокодек: FLAC (*.flac)
Тип рипа: tracks
Битрейт аудио: lossless
Продолжительность: 49:37
Наличие сканов в содержимом раздачи: front
Треклист:
01. I Hate To See You Go (But I Love To Watch You Walk Away) 03:59
(Feat. Eric Khayat & Shaun Verreault)
02. Isn't That So 04:02
(Feat Sonja Ball)
03. It'll Take Time To Get Used To 04:42
(Feat. Amos Garret & Emily Lamarche)
04. Tell Me Where I've Been (So I Don't Go There Anymore) 04:55
(Eat. Kenny Blues Boss Wayne & Steve Segal)
05. I Ain't Gonna Bath In The Kitchen Anymore 02:51
(Feat. Bill Stevenson)
06. I'll Hate You (Till Death Do Us Part) 04:13
(Feat. Kenny Blues Boss Wayne & Frank Marino)
07. Good Man In A Bad Place 03:47
(Feat. Garret Mason)
08. Brand New Cardboard Belt 03:33
(Feat. Steve Segal & Frank Marino)
09. Weeping Willow Tree Blues 04:56
(Feat. David Wilcox)
10. Last Time I'll Ever Sing The Blues 04:40
(Feat. Rick Derringer)
11. Nobody Lies (About Having The Blues) 05:08
(Feat. Jack De Keyser)
12. You Never Got The Best Of Me 02:51
(Feat. Steve Segal With Amos Garret & Dewey Reeds)

Динамический диапазон

foobar2000 1.3.16 / Dynamic Range Meter 1.1.1
log date: 2018-03-02 22:16:46
--------------------------------------------------------------------------------
Analyzed: Myles Goodwyn / Myles Goodwyn And Friends Of The Blues
--------------------------------------------------------------------------------
DR Peak RMS Duration Track
--------------------------------------------------------------------------------
DR5 0.00 dB -5.51 dB 3:59 01-I Hate To See You Go (But I Love To Watch You Walk Away)
DR5 0.00 dB -6.66 dB 4:02 02-Isn't That So
DR5 0.00 dB -6.90 dB 4:42 03-It'll Take Time To Get Used To
DR4 0.00 dB -5.24 dB 4:55 04-Tell Me Where I've Been (So I Don't Go There Anymore)
DR5 0.00 dB -6.86 dB 2:51 05-I Ain't Gonna Bath In The Kitchen Anymore
DR5 0.00 dB -6.41 dB 4:13 06-I'll Hate You (Till Death Do Us Part)
DR5 0.00 dB -5.41 dB 3:47 07-Good Man In A Bad Place
DR5 0.00 dB -5.42 dB 3:33 08-Brand New Cardboard Belt
DR7 0.00 dB -8.11 dB 4:56 09-Weeping Willow Tree Blues
DR5 0.00 dB -5.69 dB 4:40 10-Last Time I'll Ever Sing The Blues
DR4 0.00 dB -5.94 dB 5:08 11-Nobody Lies (About Having The Blues)
DR4 0.00 dB -6.06 dB 2:51 12-You Never Got The Best Of Me
--------------------------------------------------------------------------------
Number of tracks: 12
Official DR value: DR5
Samplerate: 44100 Hz
Channels: 2
Bits per sample: 16
Bitrate: 861 kbps
Codec: FLAC

Лог проверки качества

PERFORMER: auCDtect Task Manager, ver. 1.6.0 RC1 build 1.6.0.1
Copyright (c) 2008-2010 y-soft. All rights reserved
http://y-soft.org
ANALYZER: auCDtect: CD records authenticity detector, version 0.8.2
Copyright (c) 2004 Oleg Berngardt. All rights reserved.
Copyright (c) 2004 Alexander Djourik. All rights reserved.
FILE: 01 - I Hate To See You Go (But I Love To Watch You Walk Away).flac
Size: 30041021 Hash: C304698A49C9B14D80D5C6F372C6F32D Accuracy: -m0
Conclusion: CDDA 100%
Signature: A5D26ED305CD7FF1E24935A13F9427E45F2E472C
FILE: 02 - Isn't That So.flac
Size: 27505595 Hash: 29215956A8D3C0A085299122AE7CA759 Accuracy: -m0
Conclusion: CDDA 100%
Signature: A589D8CB79A0AF5D27CDAB760AA4B2262A80FEDB
FILE: 03 - It'll Take Time To Get Used To.flac
Size: 29822814 Hash: 36C8F1ABFDD969407C6A3102607AA528 Accuracy: -m0
Conclusion: CDDA 100%
Signature: C274DFCBD03AF0517F84EB59AB6E53C5528B0440
FILE: 04 - Tell Me Where I've Been (So I Don't Go There Anymore).flac
Size: 33134181 Hash: 1176FA68759FC2FC1A1B2F2210AA3CEB Accuracy: -m0
Conclusion: CDDA 100%
Signature: 67080984CE0247E96C8DF2441C33AB1DDD216146
FILE: 05 - I Ain't Gonna Bath In The Kitchen Anymore.flac
Size: 19973648 Hash: 6A7792210FBBE4259D917DDEA34981E9 Accuracy: -m0
Conclusion: CDDA 100%
Signature: A786553B0A1CFB6917ED89D4D079F708823ACAEA
FILE: 06 - I'll Hate You (Till Death Do Us Part).flac
Size: 29509957 Hash: 73F09637547B663162FCB901ED087019 Accuracy: -m0
Conclusion: CDDA 100%
Signature: DC98EDB60139A6154A89ED7631FEF07A1B6E8264
FILE: 07 - Good Man In A Bad Place.flac
Size: 26648546 Hash: 660C853C0ACBF040CC4332398F40F0EF Accuracy: -m0
Conclusion: CDDA 100%
Signature: 84AEB2CA1652E29A0F3D3D355A86C5C091ED5883
FILE: 08 - Brand New Cardboard Belt.flac
Size: 25935322 Hash: 0FC09D845049111950FCABE241D40C68 Accuracy: -m0
Conclusion: CDDA 100%
Signature: F2098C191999D132428C0405C4B7FAC0A460E936
FILE: 09 - Weeping Willow Tree Blues.flac
Size: 30024811 Hash: 33116DC4164639581F48E35B4B1FF923 Accuracy: -m0
Conclusion: CDDA 99%
Signature: EC6957F443953C38DBBBF106EE7F4A38EFF2F3EA
FILE: 10 - Last Time I'll Ever Sing The Blues.flac
Size: 33737024 Hash: 3DEE04C3EF3C703365EC0C46F4D46980 Accuracy: -m0
Conclusion: CDDA 100%
Signature: D315A53CB9D40761D064AADA288280C40240C099
FILE: 11 - Nobody Lies (About Having The Blues).flac
Size: 35012500 Hash: 3E146B471A3E81A38024367A139173BB Accuracy: -m0
Conclusion: CDDA 99%
Signature: 89D6586920476AEEFDE04C3C744252053B3C1489
FILE: 12 - You Never Got The Best Of Me.flac
Size: 18699135 Hash: A103C79036AC2F604C7EB5932EAF9FE9 Accuracy: -m0
Conclusion: CDDA 100%
Signature: ACADE57AE953A35BF5D9910D4C34DAF76066FDE5

Скриншот спектра частот

Об исполнителе (группе)

http://www.aprilwine.ca/the-band/myles-goodwyn/
[cybertorrent.ru].t41635.torrent 
Торрент: Зарегистрирован [ 2018-03-19 15:15 ] · 8C26049F965E5D19A183A117EE07C7D73C2FCD79

Скачать .torrent

Скачать

14 KB

Статус: проверено
Скачан: 0 раз
Размер: 325 MB
Профиль [ЛС]
Показать сообщения:    

Текущее время: 24-Апр 14:09

Часовой пояс: UTC ± 0



Вы не можете начинать темы
Вы не можете отвечать на сообщения
Вы не можете редактировать свои сообщения
Вы не можете удалять свои сообщения
Вы не можете голосовать в опросах
Вы не можете прикреплять файлы к сообщениям
Вы можете скачивать файлы