Статистика раздачи
Размер:  364 MB   |    Зарегистрирован:  1 месяц 5 дней   |    Скачан:  0 раз

Полного источника не было: Никогда

 
   
 
 

Bobby ®

Пол:
Не указан
Стаж:
2 месяца 6 дней
Сообщений:
148

Taylor Swift - Shake It Off (Le Grand Journal, La Suite, Canal+ 6.10.2014)
Жанр: Dance-pop
Продолжительность: 00:04:17
Год выпуска: 06.10.2014
Качество: HDTV
Разрешение видео/развертка: 1080i
Контейнер: TS
Видео кодек: H.264
Аудио кодек: AC3
Видео: 1920x1080 (16:9), 11 Mbit, 25 fps
Аудио: AC3, 192 Kbps, 2 ch, 48 KHz

Отчёт MediaInfo

Общее
Идентификатор : 1080 (0x438)
Полное имя : E:\VIDEO\Video-Clips\TS\Taylor Swift - Shake It Off (Le grand journal, la suite, Canal 6.10.2014)1080i HDTV.ts
Формат : MPEG-TS
Размер файла : 364 Мбайт
Продолжительность : 4 м. 17 с.
Режим общего битрейта : Переменный
Общий поток : 11,8 Мбит/сек
Видео
Идентификатор : 160 (0xA0)
Идентификатор меню : 8801 (0x2261)
Формат : AVC
Формат/Информация : Advanced Video Codec
Профиль формата : High@L4
Настройки формата : CABAC / 4 Ref Frames
Параметр CABAC формата : Да
Параметр RefFrames формата : 4 кадра
Параметр GOP формата : M=4, N=24
Идентификатор кодека : 27
Продолжительность : 4 м. 17 с.
Битрейт : 11,0 Мбит/сек
Ширина : 1920 пикселей
Высота : 1080 пикселей
Соотношение сторон : 16:9
Частота кадров : 25,000 кадров/сек
Цветовое пространство : YUV
Субдискретизация насыщенности : 4:2:0
Битовая глубина : 8 бит
Тип развёртки : MBAFF
Метод сохранения типа развёртки : Чередующиеся поля
Порядок развёртки : Верхнее поле первое
Бит/(Пиксели*Кадры) : 0.213
Размер потока : 340 Мбайт (93%)
Цветовой диапазон : Limited
Основные цвета : BT.709
Характеристики трансфера : BT.709
Коэффициенты матрицы : BT.709
Аудио
Идентификатор : 82 (0x52)
Идентификатор меню : 8801 (0x2261)
Формат : AC-3
Формат/Информация : Audio Coding 3
Идентификатор кодека : 6
Продолжительность : 4 м. 17 с.
Вид битрейта : Постоянный
Битрейт : 192 Кбит/сек
Каналы : 2 канала
Расположение каналов : Front: L R
Частота : 48,0 КГц
Частота кадров : 31,250 кадров/сек (1536 SPF)
Битовая глубина : 16 бит
Метод сжатия : С потерями
Задержка видео : 4 мс.
Размер потока : 5,90 Мбайт (2%)
Язык : French
ServiceKind/String : Complete Main

Скриншоты

[cybertorrent.ru].t41640.torrent 
Торрент: Зарегистрирован [ 2018-03-19 15:15 ] · E618EB0D8DF8ABDEEA9407B4215591D6E62B8D2F

Скачать .torrent

Скачать

15 KB

Статус: проверено
Скачан: 0 раз
Размер: 364 MB
Профиль [ЛС]
Показать сообщения:    

Текущее время: 24-Апр 18:19

Часовой пояс: UTC ± 0



Вы не можете начинать темы
Вы не можете отвечать на сообщения
Вы не можете редактировать свои сообщения
Вы не можете удалять свои сообщения
Вы не можете голосовать в опросах
Вы не можете прикреплять файлы к сообщениям
Вы можете скачивать файлы