Статистика раздачи
Размер:  434 MB   |    Зарегистрирован:  1 месяц 5 дней   |    Скачан:  0 раз

Полного источника не было: Никогда

 
   
 
 

semiramida ®

Пол:
Не указан
Стаж:
2 месяца 6 дней
Сообщений:
186

Tori Kelly - Don't You Worry 'Bout A Thing Жанр: Pop
Продолжительность: 00:03:11
Год выпуска: 2017
Описание: Певица Tori Kelly в поддержку мультипликационного фильма "Sing" (название в российском прокате "Зверопой") выпустила песню "Don't You Worry 'Bout A Thing", являющейся кавером оригинальной композиции легенды музыки Stevie Wonder.
Видео на данную композицию получилось позитивным и танцевальным.
Доп. информация: Файл с Blu-Ray Disk мультфильма "Зверопой".
Качество: BDAV
Разрешение видео/развертка: 1080p
Контейнер: M2TS
Видео кодек: AVC
Аудио кодек: AC3
Видео: 1920 x 1080 (1.778) at 23.976 fps AVC at 18,0 Мбит/сек
Аудио: 2 канала, 48,0 КГц AC-3 at 192 Кбит/сек

Отчёт MediaInfo / BDInfo

Формат : BDAV
Формат/Информация : Blu-ray Video
Размер файла : 434 Мбайт
Продолжительность : 3 м. 11 с.
Режим общего битрейта : Переменный
Общий поток : 19,0 Мбит/сек
Максимальный общий битрейт : 48,0 Мбит/сек
Видео
Идентификатор : 4113 (0x1011)
Идентификатор меню : 1 (0x1)
Формат : AVC
Формат/Информация : Advanced Video Codec
Профиль формата : High@L4.1
Параметр CABAC формата : Да
Параметр ReFrames формата : 4 кадра
Идентификатор кодека : 27
Продолжительность : 3 м. 11 с.
Вид битрейта : Переменный
Битрейт : 18,0 Мбит/сек
Максимальный битрейт : 35,0 Мбит/сек
Ширина : 1920 пикселей
Высота : 1080 пикселей
Соотношение сторон : 16:9
Частота кадров : 23,976 (24000/1001) кадра/сек
Цветовое пространство : YUV
Субдискретизация насыщенности : 4:2:0
Битовая глубина : 8 бит
Тип развёртки : Прогрессивная
Бит/(Пиксели*Кадры) : 0.362
Размер потока : 412 Мбайт (95%)
Аудио
Идентификатор : 4352 (0x1100)
Идентификатор меню : 1 (0x1)
Формат : AC-3
Формат/Информация : Audio Coding 3
Расширение режима : CM (complete main)
Параметр Endianness формата : Big
Идентификатор кодека : 129
Продолжительность : 3 м. 11 с.
Вид битрейта : Постоянный
Битрейт : 192 Кбит/сек
Каналы : 2 канала
Расположение каналов : Front: L R
Частота : 48,0 КГц
Частота кадров : 31,250 кадров/сек (1536 spf)
Метод сжатия : С потерями
Размер потока : 4,39 Мбайт (1%)

Скриншоты

[cybertorrent.ru].t41645.torrent 
Торрент: Зарегистрирован [ 2018-03-19 15:15 ] · F780BAC43E0688A0895802E86E065C07620C0A62

Скачать .torrent

Скачать

17 KB

Статус: проверено
Скачан: 0 раз
Размер: 434 MB
Профиль [ЛС]
Показать сообщения:    

Текущее время: 24-Апр 18:20

Часовой пояс: UTC ± 0



Вы не можете начинать темы
Вы не можете отвечать на сообщения
Вы не можете редактировать свои сообщения
Вы не можете удалять свои сообщения
Вы не можете голосовать в опросах
Вы не можете прикреплять файлы к сообщениям
Вы можете скачивать файлы