Статистика раздачи
Размер:  270 MB   |    Зарегистрирован:  1 месяц 2 дня   |    Скачан:  0 раз

Полного источника не было: Никогда

 
   
 
 

Frozen ®

Пол:
Не указан
Стаж:
2 месяца 7 дней
Сообщений:
296

Paul Lamb And The Detroit Breakdown / Fly In4mation
Жанр: Blues-Rock/Hard Rock
Носитель: WEB
Год издания: 2017
Издатель (лейбл): EE Records
Страна исполнителя (группы): USA
Аудиокодек: FLAC (*.flac)
Тип рипа: tracks
Битрейт аудио: lossless
Продолжительность: 35:37
Наличие сканов в содержимом раздачи: front
Треклист:
01 Fear Free (feat. Eric Gales) 05:33
02 Drinkin' rain 03:41
03 And a Little Bit More (I Want It All) 03:56
04 Shape to Shadow 05:18
05 Brotherhoos of the Misunderstood 04:56
06 One More Shot 03:10
07 My Name (feat. Joanne Shaw Taylor) 03:38
08 Living Words 05:25

Динамический диапазон

foobar2000 1.3.15 / Dynamic Range Meter 1.1.1
log date: 2017-11-10 09:43:49
--------------------------------------------------------------------------------
Analyzed: Paul Lamb & The Detroit Breakdown / Fly In4mation
--------------------------------------------------------------------------------
DR Peak RMS Duration Track
--------------------------------------------------------------------------------
DR5 -0.91 dB -8.02 dB 5:33 01-Fear Free (Feat. Eric Gales)
DR5 -0.91 dB -7.72 dB 3:41 02-Drinkin' Rain
DR5 -0.91 dB -7.84 dB 3:56 03-And A Little Bit More (I Want It All)
DR7 -0.91 dB -9.88 dB 5:18 04-Shape To Shadow
DR5 -0.91 dB -7.82 dB 4:56 05-Brotherhoos Of The Misunderstood
DR6 -0.91 dB -7.55 dB 3:10 06-One More Shot
DR6 -0.91 dB -7.62 dB 3:38 07-My Name (Feat. Joanne Shaw Taylor)
DR10 -0.91 dB -13.35 dB 5:25 08-Living Words
--------------------------------------------------------------------------------
Number of tracks: 8
Official DR value: DR6
Samplerate: 44100 Hz
Channels: 2
Bits per sample: 16
Bitrate: 810 kbps
Codec: FLAC

Лог проверки качества

PERFORMER: auCDtect Task Manager, ver. 1.6.0 RC1 build 1.6.0.1
Copyright (c) 2008-2010 y-soft. All rights reserved
http://y-soft.org
ANALYZER: auCDtect: CD records authenticity detector, version 0.8.2
Copyright (c) 2004 Oleg Berngardt. All rights reserved.
Copyright (c) 2004 Alexander Djourik. All rights reserved.
FILE: 01 - Fear Free (Feat. Eric Gales).flac
Size: 47103306 Hash: 10EE32D595BE424DFAEF328A64E3BFDF Accuracy: -m0
Conclusion: CDDA 100%
Signature: BD3210F5CDB2A18B472CC398E9C80FA220D0893C
FILE: 02 - Drinkin' Rain.flac
Size: 30911101 Hash: E72511B047DCF8834B4BD87BD5BB8785 Accuracy: -m0
Conclusion: CDDA 100%
Signature: 4417E2F0D90236D6F83B429015528D85CBBB1DB1
FILE: 03 - And A Little Bit More (I Want It All).flac
Size: 32794933 Hash: B96EBC6AD33083853A27C3DDE5233E47 Accuracy: -m0
Conclusion: CDDA 100%
Signature: E6D3CE41F0AA78F67440DAB8C064C12DFDB58184
FILE: 04 - Shape To Shadow.flac
Size: 40680112 Hash: 9A62EAE265A140D612EF88D7E5E23E6F Accuracy: -m0
Conclusion: CDDA 100%
Signature: 4C0E74B5370B967254BBD726B116BD4F4AEAB69B
FILE: 05 - Brotherhoos Of The Misunderstood.flac
Size: 40795448 Hash: F273E97D509482EB0953A3725F07E082 Accuracy: -m0
Conclusion: CDDA 99%
Signature: 77458ADB8405A67666084C888A09BF1A8D1638D6
FILE: 06 - One More Shot.flac
Size: 26835549 Hash: 31F13C035128FAD9A10A108C31AFAEEF Accuracy: -m0
Conclusion: CDDA 100%
Signature: 56419B27B5A02CBB2A1FAA6DBFBDC22C51169723
FILE: 07 - My Name (Feat. Joanne Shaw Taylor).flac
Size: 30227277 Hash: 13A390C2F1E9E2A664451238B7E69C04 Accuracy: -m0
Conclusion: CDDA 99%
Signature: 80E54CD3D1A7CF3670A5D65DD2C6EEA7501C9428
FILE: 08 - Living Words.flac
Size: 33146555 Hash: C764EE0C9FA876E0DA9E41B230BB7D74 Accuracy: -m0
Conclusion: CDDA 100%
Signature: 84FDCB2BEFB513A2FCC21EC4F82C0A2278B7B246

Скриншот спектра частот

It's not Harp, it's Hard Blues-Rock!

Об исполнителе (группе)

http://paullambdetroit.net/

Состав

Paul Andrew Ulysses Lamb - Lead Guitar, Vocals, Songwriter
Adam Feust - Rhythm Guitar, Back Up Vocals
Cory Sowa - Percussion, Back Up Vocals
Lincoln Roth - Bass Guitar, Back Up Vocals
[cybertorrent.ru].t41650.torrent 
Торрент: Зарегистрирован [ 2018-03-19 15:15 ] · 3D3DC051F1AB49480CD899D154C197F586350F8F

Скачать .torrent

Скачать

12 KB

Статус: проверено
Скачан: 0 раз
Размер: 270 MB
Профиль [ЛС]
Показать сообщения:    

Текущее время: 22-Апр 14:34

Часовой пояс: UTC ± 0



Вы не можете начинать темы
Вы не можете отвечать на сообщения
Вы не можете редактировать свои сообщения
Вы не можете удалять свои сообщения
Вы не можете голосовать в опросах
Вы не можете прикреплять файлы к сообщениям
Вы можете скачивать файлы