Статистика раздачи
Размер:  300 MB   |    Зарегистрирован:  1 месяц 2 дня   |    Скачан:  0 раз

Полного источника не было: Никогда

 
   
 
 

semiramida ®

Пол:
Не указан
Стаж:
2 месяца 4 дня
Сообщений:
186


Dua Lipa
IDGAF


Жанр: Pop
Продолжительность: 00:03:49
Год выпуска: 03 March 2018
Качество: HDTV
Разрешение видео/развертка: 1080i
Контейнер: TS
Видео кодек: MPEG2
Аудио кодек: AC3
Видео: MPEG2 Video 1920x1080 29.97fps 10.0 Mb/s
Аудио: Dolby AC3 48000Hz 6ch 384kbps

Отчёт MediaInfo / BDInfo

General
ID : 1 (0x1)
Complete name : K:\Dua Lipa - IDGAF (The Ellen DeGeneres Show) 2018.ts
Format : MPEG-TS
File size : 300 MiB
Duration : 3 min 49 s
Overall bit rate mode : Variable
Overall bit rate : 10.9 Mb/s
Movie name :
Law rating : TV-G
Video
ID : 540 (0x21C)
Menu ID : 1 (0x1)
Format : MPEG Video
Format version : Version 2
Format profile : Main@High
Format settings, BVOP : Yes
Format settings, Matrix : Custom
Format settings, GOP : Variable
Format settings, picture struc : Frame
Codec ID : 2
Duration : 3 min 49 s
Bit rate mode : Variable
Bit rate : 10.0 Mb/s
Maximum bit rate : 15.7 Mb/s
Width : 1 920 pixels
Height : 1 080 pixels
Display aspect ratio : 16:9
Active Format Description : Full frame 16:9 image
Frame rate : 29.970 (30000/1001) FPS
Color space : YUV
Chroma subsampling : 4:2:0
Bit depth : 8 bits
Scan type : Interlaced
Scan order : Top Field First
Compression mode : Lossy
Bits/(Pixel*Frame) : 0.161
Time code of first frame : 00:00:00;00
Time code source : Group of pictures header
GOP, Open/Closed : Open
Stream size : 274 MiB (91%)
Audio
ID : 538 (0x21A)
Menu ID : 1 (0x1)
Format : AC-3
Format/Info : Audio Coding 3
Format settings, Endianness : Big
Codec ID : 129
Duration : 3 min 49 s
Bit rate mode : Constant
Bit rate : 384 kb/s
Channel(s) : 6 channels
Channel positions : Front: L C R, Side: L R, LFE
Sampling rate : 48.0 kHz
Frame rate : 31.250 FPS (1536 SPF)
Bit depth : 16 bits
Compression mode : Lossy
Delay relative to video : -4 ms
Stream size : 10.5 MiB (4%)
Language : English
Service kind : Complete Main

Скриншоты

[cybertorrent.ru].t41668.torrent 
Торрент: Зарегистрирован [ 2018-03-19 15:15 ] · 7C1014FE38FBA7AB38ADA4DC5AFBD39FD4CD53D0

Скачать .torrent

Скачать

12 KB

Статус: проверено
Скачан: 0 раз
Размер: 300 MB
Профиль [ЛС]
Показать сообщения:    

Текущее время: 22-Апр 14:36

Часовой пояс: UTC ± 0



Вы не можете начинать темы
Вы не можете отвечать на сообщения
Вы не можете редактировать свои сообщения
Вы не можете удалять свои сообщения
Вы не можете голосовать в опросах
Вы не можете прикреплять файлы к сообщениям
Вы можете скачивать файлы