Статистика раздачи
Размер:  1,37 GB   |    Зарегистрирован:  2 месяца 3 дня   |    Скачан:  0 раз

Полного источника не было: Никогда

 
   
 
 

666 ®

Пол:
Не указан
Стаж:
3 месяца 7 дней
Сообщений:
232

Сын двух матерей, или Комедия невинности / Комедия невинности / Comédie de l'innocence Страна: Франция
Жанр: драма, мистика, триллер, экранизация
Год выпуска: 2000
Продолжительность: 01:38:20
Перевод: Авторский (одноголосый закадровый) Антон Алексеев
Субтитры: нет
Оригинальная аудиодорожка: французский
Режиссер: Рауль Руис / Raoul Ruiz
В ролях: Изабель Юппер, Жанна Балибар, Шарль Берлинг, Эдит Скоб, Нильс Югон, Лор де Клермон-Тоннер, Дени Подалидес, Шанталь Броннер, Бруно Маренго, Николас Де Ла Буме, Жан-Луи Крино, Валери Шатц, Эммануэль Кларк, Алиса Соверен
Описание: Основан на романе итальянского писателя-сюрреалиста Массимо Бонтемпелли "Сын двух матерей". На свой девятый день рождения маленький Камиль (Нильс Югон), тихий, послушный и очень одинокий мальчик, приготовил своим родным необычный "подарок". За семейным столом он заявляет своей маме Ариане (Изабель Юппер), любящей, но внешне холодной женщине, что отныне он будет называть ее только по имени, ведь у него есть другая мама, "настоящая", в существовании которой вскоре все смогут убедиться... и он называет адрес никому не известного дома на окраине, где должен находиться его настоящий дом, его поведение ставит мать в тупик. И она не находит ничего лучше, чем поехать по этому адресу, и чем дальше, тем больше попадает под влияние идей своего сына...
Сэмпл: http://multi-up.com/1191005
Качество видео: DVDRip
Спасибо sergdoc
Формат видео: AVI
Видео: DivX, 640x368 (1.74:1), 23.976 fps, 1336 kbps avg
Аудио: Russian AC3 Dolby Digital, 48 kHz, 2/0 (L,R) ch, 192.00 kbps avg
Аудио 2: French AC3 Dolby Digital, 48 kHz, 2/0 (L,R) ch, 192.00 kbps avg

MediaInfo

General
Complete name : D:\Комедия невинности\Комедия.невинности.2000.DVDRip.AVO.Alekseev.avi
Format : AVI
Format/Info : Audio Video Interleave
File size : 1.37 GiB
Duration : 1 h 38 min
Overall bit rate : 1 990 kb/s
Writing application : VirtualDubModRus 1.5.10.2 (build 2542/release)
Writing library : VirtualDubMod build 2542/release
Video
ID : 0
Format : MPEG-4 Visual
Format settings : BVOP1
Format settings, BVOP : 1
Format settings, QPel : No
Format settings, GMC : No warppoints
Format settings, Matrix : Default (H.263)
Codec ID : DX50
Codec ID/Hint : DivX 5
Duration : 1 h 38 min
Bit rate : 1 336 kb/s
Nominal bit rate : 6 951 kb/s
Width : 640 pixels
Height : 368 pixels
Display aspect ratio : 1.739
Frame rate : 23.976 (24000/1001) FPS
Color space : YUV
Chroma subsampling : 4:2:0
Bit depth : 8 bits
Scan type : Progressive
Compression mode : Lossy
Bits/(Pixel*Frame) : 0.237
Stream size : 940 MiB (67%)
Writing library : DivX 5.2.1 (WaffleDay) (UTC 2004-09-08)
Audio #1
ID : 1
Format : AC-3
Format/Info : Audio Coding 3
Codec ID : 2000
Duration : 1 h 38 min
Bit rate mode : Constant
Bit rate : 192 kb/s
Channel(s) : 2 channels
Channel positions : Front: L R
Sampling rate : 48.0 kHz
Frame rate : 31.250 FPS (1536 SPF)
Bit depth : 16 bits
Compression mode : Lossy
Stream size : 135 MiB (10%)
Alignment : Split accross interleaves
Interleave, duration : 42 ms (1.00 video frame)
Interleave, preload duratio : 500 ms
Service kind : Complete Main
Audio #2
ID : 2
Format : AC-3
Format/Info : Audio Coding 3
Codec ID : 2000
Duration : 1 h 38 min
Bit rate mode : Constant
Bit rate : 448 kb/s
Channel(s) : 6 channels
Channel positions : Front: L C R, Side: L R, LFE
Sampling rate : 48.0 kHz
Frame rate : 31.250 FPS (1536 SPF)
Bit depth : 16 bits
Compression mode : Lossy
Stream size : 315 MiB (23%)
Alignment : Split accross interleaves
Interleave, duration : 42 ms (1.00 video frame)
Interleave, preload duratio : 500 ms
Service kind : Complete Main

Скриншоты

[cybertorrent.ru].t41670.torrent 
Торрент: Зарегистрирован [ 2018-03-19 15:15 ] · 559B61590614C131C4E5D8E99954145FFCB01E93

Скачать .torrent

Скачать

14 KB

Статус: проверено
Скачан: 0 раз
Размер: 1,37 GB
Профиль [ЛС]
Показать сообщения:    

Текущее время: 22-Май 23:22

Часовой пояс: UTC ± 0



Вы не можете начинать темы
Вы не можете отвечать на сообщения
Вы не можете редактировать свои сообщения
Вы не можете удалять свои сообщения
Вы не можете голосовать в опросах
Вы не можете прикреплять файлы к сообщениям
Вы можете скачивать файлы