Статистика раздачи
Размер:  296 MB   |    Зарегистрирован:  1 месяц 3 дня   |    Скачан:  0 раз

Полного источника не было: Никогда

 
   
 
 

semiramida ®

Пол:
Не указан
Стаж:
2 месяца 4 дня
Сообщений:
186

TaeYeon - Why Жанр: Kpop
Продолжительность: 00:04:07
Год выпуска: 2016
Описание: По такой на вид хрупкой и юной девушке и не подумаешь, что за её плечами внушительный стаж на музыкальной сцене, в частности лидер и солистка самого известного girls band "Girls` Generation" (или сокращено "SNSD"). TaeYeon - одна из самых вокально одаренных певиц на современной сцены Южной Корее. Ценителям приятной и качественной поп-музыки стоит ознакомится с творчеством данной исполнительницы.
Доп. информация: Видео от MelOn
Качество: HDTV
Разрешение видео/развертка: 1080p
Контейнер: MPEG4
Видео кодек: AVC
Аудио кодек: AAC
Видео: 1920 x 1080 (1.778) at 23.976 fps AVC at 10,0 Мбит/сек
Аудио: 2 канала, 48,0 КГц AAC at 317 Кбит/сек

Отчёт MediaInfo / BDInfo

Формат : MPEG-4
Профиль формата : Base Media / Version 2
Идентификатор кодека : mp42 (mp42/isom/avc1)
Размер файла : 296 Мбайт
Продолжительность : 4 м. 7 с.
Режим общего битрейта : Переменный
Общий поток : 10,0 Мбит/сек
Программа кодирования : TMPGEnc Video Mastering Works 5 Version. 5.4.0.100
Видео
Идентификатор : 2
Формат : AVC
Формат/Информация : Advanced Video Codec
Профиль формата : Baseline@L4.1
Параметр CABAC формата : Нет
Параметр ReFrames формата : 4 кадра
Идентификатор кодека : avc1
Идентификатор кодека/Информация : Advanced Video Coding
Продолжительность : 4 м. 7 с.
Вид битрейта : Постоянный
Битрейт : 10,0 Мбит/сек
Ширина : 1920 пикселей
Высота : 1080 пикселей
Соотношение сторон : 16:9
Режим частоты кадров : Постоянный
Частота кадров : 23,976 (24000/1001) кадра/сек
Стандарт вещания : Component
Цветовое пространство : YUV
Субдискретизация насыщенности : 4:2:0
Битовая глубина : 8 бит
Тип развёртки : Прогрессивная
Бит/(Пиксели*Кадры) : 0.201
Размер потока : 287 Мбайт (97%)
Библиотека кодирования : x264 core 125
Настройки программы : cabac=0 / ref=4 / deblock=1:0:0 / analyse=0x1:0x111 / me=dia / subme=2 / psy=1 / psy_rd=1.00:0.00 / mixed_ref=0 / me_range=16 / chroma_me=1 / trellis=0 / 8x8dct=0 / cqm=0 / deadzone=21,11 / fast_pskip=1 / chroma_qp_offset=0 / threads=6 / lookahead_threads=1 / sliced_threads=0 / slices=1 / nr=0 / decimate=1 / interlaced=0 / bluray_compat=0 / constrained_intra=0 / bframes=0 / weightp=0 / keyint=300 / keyint_min=23 / scenecut=40 / intra_refresh=0 / rc_lookahead=10 / rc=cbr / mbtree=1 / bitrate=10000 / ratetol=1.0 / qcomp=0.60 / qpmin=0 / qpmax=69 / qpstep=4 / vbv_maxrate=10000 / vbv_bufsize=10000 / nal_hrd=cbr / ip_ratio=1.40 / aq=1:1.00
Цветовой диапазон : Limited
Основные цвета : BT.709
Характеристики трансфера : BT.709
Коэффициенты матрицы : BT.709
Аудио
Идентификатор : 1
Формат : AAC
Формат/Информация : Advanced Audio Codec
Профиль формата : LC
Идентификатор кодека : 40
Продолжительность : 4 м. 7 с.
Вид битрейта : Переменный
Битрейт : 317 Кбит/сек
Максимальный битрейт : 576 Кбит/сек
Каналы : 2 канала
Расположение каналов : Front: L R
Частота : 48,0 КГц
Частота кадров : 46,875 кадров/сек (1024 spf)
Метод сжатия : С потерями
Размер потока : 9,37 Мбайт (3%)

Скриншоты

[cybertorrent.ru].t41690.torrent 
Торрент: Зарегистрирован [ 2018-03-19 15:15 ] · A6A8F654EDD2177EA17315B367725A5797B9E3A7

Скачать .torrent

Скачать

12 KB

Статус: проверено
Скачан: 0 раз
Размер: 296 MB
Профиль [ЛС]
Показать сообщения:    

Текущее время: 22-Апр 23:38

Часовой пояс: UTC ± 0



Вы не можете начинать темы
Вы не можете отвечать на сообщения
Вы не можете редактировать свои сообщения
Вы не можете удалять свои сообщения
Вы не можете голосовать в опросах
Вы не можете прикреплять файлы к сообщениям
Вы можете скачивать файлы