Статистика раздачи
Размер:  3,03 GB   |    Зарегистрирован:  1 месяц 2 дня   |    Скачан:  0 раз

Полного источника не было: Никогда

 
   
 
 

chik ®

Пол:
Не указан
Стаж:
2 месяца 4 дня
Сообщений:
148

GurrLive Beim Puls Festival


Жанр: Indie Rock, Alternative, Garage Rock
Продолжительность: 00:29:57
Год выпуска: 2018
Качество: HDTV
Разрешение видео/развертка: 720p
Контейнер: TS
Видео кодек: H264
Аудио кодек: AC3
Видео: MPEG4 Video (H264) 1280x720 50fps 13.3 Mb/s
Аудио: Dolby AC3 48000Hz stereo 448kbps

Треклист

01. Walnuss
02. Free
03. Rollerskate
04. #1985
05. Interview in Studio
06. Breathless
07. Moby Dick
08. Yosemite
09. Klartraum
10. Helter Skelter

Отчёт MediaInfo / BDInfo

General
ID : 1 (0x1)
Complete name : F:\Gurr - Live Beim Puls Festival (2017).ts
Format : MPEG-TS
File size : 3.03 GiB
Duration : 29 min 57 s
Overall bit rate mode : Variable
Overall bit rate : 14.5 Mb/s
Video
ID : 5201 (0x1451)
Menu ID : 1 (0x1)
Format : AVC
Format/Info : Advanced Video Codec
Format profile : High@L4
Format settings, CABAC : Yes
Format settings, RefFrames : 4 frames
Codec ID : 27
Duration : 29 min 57 s
Bit rate : 13.3 Mb/s
Width : 1 280 pixels
Height : 720 pixels
Display aspect ratio : 16:9
Frame rate : 50.000 FPS
Color space : YUV
Chroma subsampling : 4:2:0
Bit depth : 8 bits
Scan type : Progressive
Bits/(Pixel*Frame) : 0.289
Stream size : 2.79 GiB (92%)
Audio
ID : 5206 (0x1456)
Menu ID : 1 (0x1)
Format : AC-3
Format/Info : Audio Coding 3
Format settings, Endianness : Big
Codec ID : 6
Duration : 29 min 57 s
Bit rate mode : Constant
Bit rate : 448 kb/s
Channel(s) : 2 channels
Channel positions : Front: L R
Sampling rate : 48.0 kHz
Frame rate : 31.250 FPS (1536 SPF)
Bit depth : 16 bits
Compression mode : Lossy
Stream size : 96.0 MiB (3%)
Language : German
Service kind : Complete Main
[cybertorrent.ru].t41696.torrent 
Торрент: Зарегистрирован [ 2018-03-19 15:15 ] · 673E87AB1223765FB2CFEE046D7AB0E81B757B79

Скачать .torrent

Скачать

16 KB

Статус: проверено
Скачан: 0 раз
Размер: 3,03 GB
Профиль [ЛС]
Показать сообщения:    

Текущее время: 22-Апр 14:37

Часовой пояс: UTC ± 0



Вы не можете начинать темы
Вы не можете отвечать на сообщения
Вы не можете редактировать свои сообщения
Вы не можете удалять свои сообщения
Вы не можете голосовать в опросах
Вы не можете прикреплять файлы к сообщениям
Вы можете скачивать файлы