Статистика раздачи
Размер:  405 MB   |    Зарегистрирован:  1 месяц 2 дня   |    Скачан:  0 раз

Полного источника не было: Никогда

 
   
 
 

dash ®

Пол:
Не указан
Стаж:
2 месяца 4 дня
Сообщений:
121

Buxtehude - Complete Chamber Music Vol. 2
Жанр: Classical chamber
Страна-производитель диска: Made in Germany
Год издания диска: 1995
Издатель (лейбл): Marco Polo
Номер по каталогу: 8.224004
Дата записи: 1994
Аудиокодек: FLAC
Тип рипа: image+.cue
Битрейт аудио: lossless
Продолжительность: 63'08
Источник: релизер
сайт-источник/ник/другое: Ice, classicallibrary
Наличие сканов в содержимом раздачи: да
Треклист:
01. Sonata No. 1 in B flat major, BuxWV 259 : I. Allegro [0:01:21.05]
02. II. Adagio - Allegro [0:02:22.40]
03. III. Grave [0:01:33.60]
04. IV. Vivace - Lento [0:01:14.02]
05. V. Poco adagio - Presto [0:02:01.50]
06. Sonata No. 2 in D major, BuxWV 260 : I. Adagio - Allegro - Largo [0:03:10.00]
07. II. Arietta, Parte I-X [0:03:40.08]
08. III. Largo - Vivace [0:02:16.07]
09. Sonata No. 3 in G minor, BuxWV 261 : I. Vivace - Lento [0:03:04.50]
10. II. Allegro - Lento [0:01:24.45]
11. III. Andante [0:03:16.28]
12. IV. Grave - Gigue [0:03:08.30]
13. Sonata No. 4 in C minor, BuxWV 262 : I. Poco adagio [0:01:42.62]
14. II. Allegro - Lento [0:02:03.43]
15. III. 3/4 - Vivace [0:04:47.22]
16. Sonata No. 5 in A major, BuxWV 263 : I. Allegro [0:00:57.58]
17. II. Violino Solo - Concitato [0:03:19.07]
18. III. Adagio: Viola da gamba solo [0:01:21.28]
19. IV. Allegro - Adagio [0:01:19.07]
20. V. 6/4 - Poco presto [0:02:19.03]
21. Sonata No. 6 in E major, BuxWV 264 : I. Grave - Vivace [0:03:18.70]
22. II. Adagio - Poco presto - Lento [0:03:39.25]
23. III. Allegro [0:01:39.17]
24. Sonata No. 7 in F major, BuxWV 265 : I. Adagio - 4/4 [0:02:56.73]
25. II. Lento - Vivace [0:02:20.00]
26. III. Largo - Allegro [0:02:50.65]

Исполнители

Dietrich Buxtehude (c.1637-1707)
Complete Chamber Music Vol. 2
Sonata in B-Flat Major, Op. 2, No. 1, BuxWV 259
Sonata in D Major, Op. 2, No. 2, BuxWV 260
Sonata in G Minor, Op. 2, No. 3, BuxWV 261
Sonata in C Minor, Op. 2, No. 4, BuxWV 262
Sonata in A Major, Op. 2, No. 5, BuxWV 263
Sonata in E Major, Op. 2, No. 6, BuxWV 264
Sonata in F Major, Op. 2, No. 7, BuxWV 265
John Holloway, violin
Jaap Ter Linden, viola da gamba
Lars Ulrik Mortensen, harpsichord
Recording : Radio House, Studio 2, on September 25-28, 1994

Лог создания рипа

Exact Audio Copy V1.0 beta 3 from 29. August 2011
EAC extraction logfile from 29. November 2011, 15:45
Dietrich Buxtehude / Complete Chamber Music Vol. 2
Used drive : TSSTcorpCDDVDW SE-S224Q Adapter: 1 ID: 0
Read mode : Secure
Utilize accurate stream : Yes
Defeat audio cache : Yes
Make use of C2 pointers : No
Read offset correction : 6
Overread into Lead-In and Lead-Out : No
Fill up missing offset samples with silence : Yes
Delete leading and trailing silent blocks : No
Null samples used in CRC calculations : Yes
Used interface : Native Win32 interface for Win NT & 2000
Used output format : User Defined Encoder
Selected bitrate : 896 kBit/s
Quality : High
Add ID3 tag : No
Command line compressor : C:\Program Files\Exact Audio Copy\FLAC\FLAC.EXE
Additional command line options : -6 -V -T "ARTIST=%artist%" -T "TITLE=%title%" -T "ALBUM=%albumtitle%" -T "DATE=%year%" -T "TRACKNUMBER=%tracknr%" -T "GENRE=%genre%" -T "COMMENT=%comment%" -T "BAND=%albuminterpret%" -T "ALBUMARTIST=%albuminterpret%" -T "COMPOSER=%composer%" %haslyrics%--tag-from-file=LYRICS="%lyricsfile%"%haslyrics% -T "DISCNUMBER=%cdnumber%" -T "TOTALDISCS=%totalcds%" -T "TOTALTRACKS=%numtracks%" %hascover%--picture="%coverfile%"%hascover% %source% -o %dest%
TOC of the extracted CD
Track | Start | Length | Start sector | End sector
---------------------------------------------------------
1 | 0:00.00 | 1:21.05 | 0 | 6079
2 | 1:21.05 | 2:22.40 | 6080 | 16769
3 | 3:43.45 | 1:33.60 | 16770 | 23804
4 | 5:17.30 | 1:14.02 | 23805 | 29356
5 | 6:31.32 | 2:01.50 | 29357 | 38481
6 | 8:33.07 | 3:10.00 | 38482 | 52731
7 | 11:43.07 | 3:40.08 | 52732 | 69239
8 | 15:23.15 | 2:16.07 | 69240 | 79446
9 | 17:39.22 | 3:04.50 | 79447 | 93296
10 | 20:43.72 | 1:24.45 | 93297 | 99641
11 | 22:08.42 | 3:16.28 | 99642 | 114369
12 | 25:24.70 | 3:08.30 | 114370 | 128499
13 | 28:33.25 | 1:42.62 | 128500 | 136211
14 | 30:16.12 | 2:03.43 | 136212 | 145479
15 | 32:19.55 | 4:47.22 | 145480 | 167026
16 | 37:07.02 | 0:57.58 | 167027 | 171359
17 | 38:04.60 | 3:19.07 | 171360 | 186291
18 | 41:23.67 | 1:21.28 | 186292 | 192394
19 | 42:45.20 | 1:19.07 | 192395 | 198326
20 | 44:04.27 | 2:19.03 | 198327 | 208754
21 | 46:23.30 | 3:18.70 | 208755 | 223674
22 | 49:42.25 | 3:39.25 | 223675 | 240124
23 | 53:21.50 | 1:39.17 | 240125 | 247566
24 | 55:00.67 | 2:56.73 | 247567 | 260839
25 | 57:57.65 | 2:20.00 | 260840 | 271339
26 | 60:17.65 | 2:50.65 | 271340 | 284154
Range status and errors
Selected range
Filename J:\ICE\B.CCM2\Dietrich Buxtehude - Complete Chamber Music Vol. 2.wav
Peak level 87.3 %
Extraction speed 7.1 X
Range quality 100.0 %
Test CRC DAA39FFA
Copy CRC DAA39FFA
Copy OK
No errors occurred
AccurateRip summary
Track 1 not present in database
Track 2 not present in database
Track 3 not present in database
Track 4 not present in database
Track 5 not present in database
Track 6 not present in database
Track 7 not present in database
Track 8 not present in database
Track 9 not present in database
Track 10 not present in database
Track 11 not present in database
Track 12 not present in database
Track 13 not present in database
Track 14 not present in database
Track 15 not present in database
Track 16 not present in database
Track 17 not present in database
Track 18 not present in database
Track 19 not present in database
Track 20 not present in database
Track 21 not present in database
Track 22 not present in database
Track 23 not present in database
Track 24 not present in database
Track 25 not present in database
Track 26 not present in database
None of the tracks are present in the AccurateRip database
End of status report
---- CUETools DB Plugin V2.1.3
[CTDB TOCID: v3KlV91ULd_3EqN.Qhctxw08hL0-] disk not present in database, Submit result: v3KlV91ULd_3EqN.Qhctxw08hL0- has been uploaded
==== Log checksum 2848B9298F7781029D95933A1153880B940617AA64F7A122D722B85F0F3270CC ====

Содержание индексной карты (.CUE)

REM GENRE Classical
REM DATE 1995
REM DISCID 730ECC1A
REM COMMENT "ExactAudioCopy v1.0b3"
CATALOG 0000000000001
PERFORMER "John Holloway (violin), Jaap Ter Linden (viola da gamba), Lars Ulrik Mortensen (harpsichord)"
TITLE "Dietrich Buxtehude - Complete Chamber Music Vol. 2"
FILE "Dietrich Buxtehude - Complete Chamber Music Vol. 2.flac" WAVE
TRACK 01 AUDIO
TITLE "Sonata No. 1 in B flat major, BuxWV 259 : I. Allegro"
PERFORMER "John Holloway (violin), Jaap Ter Linden (viola da gamba), Lars Ulrik Mortensen (harpsichord)"
ISRC >`ha30030>00
INDEX 01 00:00:00
TRACK 02 AUDIO
TITLE "II. Adagio - Allegro"
PERFORMER John Holloway (violin), Jaap Ter Linden (viola da gamba), Lars Ulrik Mortensen (harpsichord)"
ISRC >`ha30030?00
INDEX 01 01:21:05
TRACK 03 AUDIO
TITLE "III. Grave"
PERFORMER John Holloway (violin), Jaap Ter Linden (viola da gamba), Lars Ulrik Mortensen (harpsichord)"
ISRC >`ha30031000
INDEX 01 03:43:45
TRACK 04 AUDIO
TITLE "IV. Vivace - Lento"
PERFORMER John Holloway (violin), Jaap Ter Linden (viola da gamba), Lars Ulrik Mortensen (harpsichord)"
ISRC >`ha30031100
INDEX 01 05:17:30
TRACK 05 AUDIO
TITLE "V. Poco adagio - Presto"
PERFORMER John Holloway (violin), Jaap Ter Linden (viola da gamba), Lars Ulrik Mortensen (harpsichord)"
ISRC >`ha30031200
INDEX 01 06:31:32
TRACK 06 AUDIO
TITLE "Sonata No. 2 in D major, BuxWV 260 : I. Adagio - Allegro - Largo"
PERFORMER John Holloway (violin), Jaap Ter Linden (viola da gamba), Lars Ulrik Mortensen (harpsichord)"
ISRC >`ha30031300
INDEX 00 08:30:12
INDEX 01 08:33:07
TRACK 07 AUDIO
TITLE "II. Arietta, Parte I-X"
PERFORMER John Holloway (violin), Jaap Ter Linden (viola da gamba), Lars Ulrik Mortensen (harpsichord)"
ISRC >`ha30031300
INDEX 01 11:43:07
TRACK 08 AUDIO
TITLE "III. Largo - Vivace"
PERFORMER John Holloway (violin), Jaap Ter Linden (viola da gamba), Lars Ulrik Mortensen (harpsichord)"
ISRC >`ha30031500
INDEX 01 15:23:15
TRACK 09 AUDIO
TITLE "Sonata No. 3 in G minor, BuxWV 261 : I. Vivace - Lento"
PERFORMER John Holloway (violin), Jaap Ter Linden (viola da gamba), Lars Ulrik Mortensen (harpsichord)"
ISRC >`ha30031600
INDEX 00 17:36:50
INDEX 01 17:39:22
TRACK 10 AUDIO
TITLE "II. Allegro - Lento"
PERFORMER John Holloway (violin), Jaap Ter Linden (viola da gamba), Lars Ulrik Mortensen (harpsichord)"
ISRC >`ha30031=00
INDEX 01 20:43:72
TRACK 11 AUDIO
TITLE "III. Andante"
PERFORMER John Holloway (violin), Jaap Ter Linden (viola da gamba), Lars Ulrik Mortensen (harpsichord)"
ISRC >`ha30031>00
INDEX 01 22:08:42
TRACK 12 AUDIO
TITLE "IV. Grave - Gigue"
PERFORMER John Holloway (violin), Jaap Ter Linden (viola da gamba), Lars Ulrik Mortensen (harpsichord)"
ISRC >`ha30031?00
INDEX 01 25:24:70
TRACK 13 AUDIO
TITLE "Sonata No. 4 in C minor, BuxWV 262 : I. Poco adagio"
PERFORMER John Holloway (violin), Jaap Ter Linden (viola da gamba), Lars Ulrik Mortensen (harpsichord)"
ISRC >`ha30032000
INDEX 00 28:30:60
INDEX 01 28:33:25
TRACK 14 AUDIO
TITLE "II. Allegro - Lento"
PERFORMER John Holloway (violin), Jaap Ter Linden (viola da gamba), Lars Ulrik Mortensen (harpsichord)"
ISRC >`ha30032100
INDEX 01 30:16:12
TRACK 15 AUDIO
TITLE "III. 3/4 - Vivace"
PERFORMER John Holloway (violin), Jaap Ter Linden (viola da gamba), Lars Ulrik Mortensen (harpsichord)"
ISRC >`ha30032200
INDEX 01 32:19:55
TRACK 16 AUDIO
TITLE "Sonata No. 5 in A major, BuxWV 263 : I. Allegro"
PERFORMER John Holloway (violin), Jaap Ter Linden (viola da gamba), Lars Ulrik Mortensen (harpsichord)"
ISRC >`ha30032300
INDEX 00 37:03:22
INDEX 01 37:07:02
TRACK 17 AUDIO
TITLE "II. Violino Solo - Concitato"
PERFORMER John Holloway (violin), Jaap Ter Linden (viola da gamba), Lars Ulrik Mortensen (harpsichord)"
ISRC >`ha30032400
INDEX 01 38:04:60
TRACK 18 AUDIO
TITLE "III. Adagio: Viola da gamba solo"
PERFORMER John Holloway (violin), Jaap Ter Linden (viola da gamba), Lars Ulrik Mortensen (harpsichord)"
ISRC >`ha30032500
INDEX 01 41:23:67
TRACK 19 AUDIO
TITLE "IV. Allegro - Adagio"
PERFORMER John Holloway (violin), Jaap Ter Linden (viola da gamba), Lars Ulrik Mortensen (harpsichord)"
ISRC >`ha30032600
INDEX 01 42:45:20
TRACK 20 AUDIO
TITLE "V. 6/4 - Poco presto"
PERFORMER John Holloway (violin), Jaap Ter Linden (viola da gamba), Lars Ulrik Mortensen (harpsichord)"
ISRC >`ha30032=00
INDEX 01 44:04:27
TRACK 21 AUDIO
TITLE "Sonata No. 6 in E major, BuxWV 264 : I. Grave - Vivace"
PERFORMER John Holloway (violin), Jaap Ter Linden (viola da gamba), Lars Ulrik Mortensen (harpsichord)"
ISRC >`ha30032>00
INDEX 00 46:18:37
INDEX 01 46:23:30
TRACK 22 AUDIO
TITLE "II. Adagio - Poco presto - Lento"
PERFORMER John Holloway (violin), Jaap Ter Linden (viola da gamba), Lars Ulrik Mortensen (harpsichord)"
ISRC >`ha30032?00
INDEX 01 49:42:25
TRACK 23 AUDIO
TITLE "III. Allegro"
PERFORMER John Holloway (violin), Jaap Ter Linden (viola da gamba), Lars Ulrik Mortensen (harpsichord)"
ISRC >`ha30033000
INDEX 01 53:21:50
TRACK 24 AUDIO
TITLE "Sonata No. 7 in F major, BuxWV 265 : I. Adagio - 4/4"
PERFORMER John Holloway (violin), Jaap Ter Linden (viola da gamba), Lars Ulrik Mortensen (harpsichord)"
ISRC >`ha30033100
INDEX 00 54:55:50
INDEX 01 55:00:67
TRACK 25 AUDIO
TITLE "II. Lento - Vivace"
PERFORMER John Holloway (violin), Jaap Ter Linden (viola da gamba), Lars Ulrik Mortensen (harpsichord)"
ISRC >`ha30033100
INDEX 01 57:57:65
TRACK 26 AUDIO
TITLE "III. Largo - Allegro"
PERFORMER John Holloway (violin), Jaap Ter Linden (viola da gamba), Lars Ulrik Mortensen (harpsichord)"
ISRC >`ha30033300
INDEX 01 60:17:65
[cybertorrent.ru].t41699.torrent 
Торрент: Зарегистрирован [ 2018-03-19 15:15 ] · 378FA995EDCA88F92329C653D4C0886F51D17033

Скачать .torrent

Скачать

18 KB

Статус: проверено
Скачан: 0 раз
Размер: 405 MB
Профиль [ЛС]
Показать сообщения:    

Текущее время: 22-Апр 14:36

Часовой пояс: UTC ± 0



Вы не можете начинать темы
Вы не можете отвечать на сообщения
Вы не можете редактировать свои сообщения
Вы не можете удалять свои сообщения
Вы не можете голосовать в опросах
Вы не можете прикреплять файлы к сообщениям
Вы можете скачивать файлы