Статистика раздачи
Размер:  297 MB   |    Зарегистрирован:  3 месяца 7 дней   |    Скачан:  0 раз

Полного источника не было: Никогда

Личеров:  4  [  0 KB/s  ]  
 
   
 
 

lopster ®

Пол:
Не указан
Стаж:
3 месяца 7 дней
Сообщений:
612

Чиппендейл Год выпуска: 2012
Жанр: короткометражка, комедия
Продолжительность: 00:15:38-Режиссёр: Камила Сафина
В главных ролях: Виктор Сухоруков, Фандус Гаптуллин, Владимир Любовский, Максим Бартош, Елена Сердюкова-Описание: Владелец антикварной лавки Михаил случайно обнаруживает в татарской глухомани редкий комод Чиппендейла. Снежные завалы, переговоры с местными суровыми мужчинами — всё готов преодолеть Миша ради заветного комода, кроме собственной жадности.- -Качество: WEBRip-AVC
Формат: MKV
Видео кодек: AVC
Аудио кодек: AAС
Видео: 1280x720, 25 fps, ~2500 kbps avg, 0.109 bit/pixel
Аудио: 48 kHz, AAC, 2ch, ~157 kbps
субтитры: английские (hardsub)

скриншоты

MediaInfo

General
Unique ID : 213299041681701820095777149500462567476 (0xA077E6B1A92BE4D18294780BE40D9034)
Complete name : D:\Mult\Чиппендейл.2012.WEBRip-AVC.mkv
Format : Matroska
Format version : Version 4 / Version 2
File size : 297 MiB
Duration : 15 min
Overall bit rate : 2 656 kb/s
Encoded date : UTC 2017-10-23 08:02:56
Writing application : mkvmerge v13.0.0 ('The Juggler') 64bit
Writing library : libebml v1.3.4 + libmatroska v1.4.5
Video
ID : 1
Format : AVC
Format/Info : Advanced Video Codec
Format profile : High@L3.1
Format settings, CABAC : Yes
Format settings, ReFrames : 4 frames
Codec ID : V_MPEG4/ISO/AVC
Duration : 15 min
Bit rate : 2 500 kb/s
Width : 1 280 pixels
Height : 720 pixels
Display aspect ratio : 16:9
Frame rate mode : Constant
Frame rate : 25.000 FPS
Color space : YUV
Chroma subsampling : 4:2:0
Bit depth : 8 bits
Scan type : Progressive
Bits/(Pixel*Frame) : 0.109
Stream size : 279 MiB (94%)
Writing library : x264 core 129 r2245 bc13772
Encoding settings : cabac=1 / ref=3 / deblock=1:0:0 / analyse=0x3:0x113 / me=hex / subme=7 / psy=1 / psy_rd=1.00:0.00 / mixed_ref=1 / me_range=16 / chroma_me=1 / trellis=1 / 8x8dct=1 / cqm=0 / deadzone=21,11 / fast_pskip=1 / chroma_qp_offset=-2 / threads=12 / lookahead_threads=2 / sliced_threads=0 / nr=0 / decimate=1 / interlaced=0 / bluray_compat=0 / constrained_intra=0 / bframes=3 / b_pyramid=2 / b_adapt=1 / b_bias=0 / direct=1 / weightb=1 / open_gop=0 / weightp=2 / keyint=75 / keyint_min=25 / scenecut=40 / intra_refresh=0 / rc_lookahead=40 / rc=2pass / mbtree=1 / bitrate=2500 / ratetol=1.0 / qcomp=0.60 / qpmin=5 / qpmax=69 / qpstep=4 / cplxblur=20.0 / qblur=0.5 / vbv_maxrate=3750 / vbv_bufsize=12500 / nal_hrd=none / ip_ratio=1.40 / aq=1:1.00
Default : Yes
Forced : No
Audio
ID : 2
Format : AAC
Format/Info : Advanced Audio Codec
Format profile : LC
Codec ID : A_AAC
Duration : 15 min
Bit rate : 157 kb/s
Channel(s) : 2 channels
Channel positions : Front: L R
Sampling rate : 48.0 kHz
Frame rate : 46.875 FPS (1024 spf)
Compression mode : Lossy
Delay relative to video : -43 ms
Stream size : 17.6 MiB (6%)
Default : Yes
Forced : No
[cybertorrent.ru].t417.torrent 
Торрент: Зарегистрирован [ 2018-02-15 15:48 ] · C4994365A15BED4848BC42EA292570C4A09B83A0

Скачать .torrent

Скачать

12 KB

Статус: проверено
Скачан: 0 раз
Размер: 297 MB
Профиль [ЛС]
Показать сообщения:    

Текущее время: 23-Май 07:09

Часовой пояс: UTC ± 0



Вы не можете начинать темы
Вы не можете отвечать на сообщения
Вы не можете редактировать свои сообщения
Вы не можете удалять свои сообщения
Вы не можете голосовать в опросах
Вы не можете прикреплять файлы к сообщениям
Вы можете скачивать файлы