Статистика раздачи
Размер:  1,46 GB   |    Зарегистрирован:  2 месяца 3 дня   |    Скачан:  1 раз
Сидов:  403  [  0 KB/s  ]   Личеров:  20  [  0 KB/s  ]  
 
   
 
 

Мария ®

Пол:
Не указан
Стаж:
3 месяца 7 дней
Сообщений:
405

Выжженная земля / Scorched Earth- Год выхода: 2018
Выпущено: Канада, США / Lighthouse Pictures
Жанр: фантастика, боевик
Продолжительность: 01:33:54
Перевод: Любительский (многоголосый, закадровый) "Синема УС"
Субтитры: нет-Режиссер:
Питер Хауит / Peter Howitt-В ролях:
Джина Карано, Сара Троер, Джон Ханна, Алиша Ньютон, Стефани Беннетт, Райан Роббинс, Патрик Сабонгуй, Лувия Петерсен, Патрик Гилмор, Дэниэл Бэйкон-О фильме:
Будущее, на планете случилась некая глобальная катастрофа, в результате которой погибли миллиарды людей. Охотница за головами, которая почти ничем не отличается от тех, за кем охотится, пытается найти и обезвредить самого опасного преступника нового мира. За это ей обещают солидный куш.-Релиз групп | | IMDB | КиноПоиск | Сэмпл |-Качество: BDRip [Scorched.Earth.2018.BluRay.1080p.AVC.DTS-HD.MA5.1-CHDBits]
Формат: AVI
Видео: 704x384 (1.83:1), 23.976 fps, XviD build 67 ~1828 kbps avg, 0.28 bit/pixel
Аудио: 48 kHz, AC3 Dolby Digital, 3/2 (L,C,R,l,r) + LFE ch, ~384.00 kbps avg-

Скриншоты

-

MediaInfo

Код:Общее
Полное имя : D:\Vyzhzhennaya_zemlya_2018_BDRip_MVO_by_Dalemake.avi
Формат : AVI
Формат/Информация : Audio Video Interleave
Размер файла : 1,46 Гбайт
Продолжительность : 1 ч. 33 м.
Общий поток : 2222 Кбит/сек
Программа кодирования : VirtualDubMod 1.5.10.3 | www.virtualdub-fr.org || (build 2550/release)
Библиотека кодирования : VirtualDubMod build 2550/release
Видео
Идентификатор : 0
Формат : MPEG-4 Visual
Профиль формата : Advanced Simple@L5
Параметр BVOP формата : 1
Параметр QPel формата : Нет
Параметр GMC формата : Без точки перехода
Параметр матрицы формата : Выборочная
Идентификатор кодека : XVID
Идентификатор кодека/Подсказка : XviD
Продолжительность : 1 ч. 33 м.
Битрейт : 1829 Кбит/сек
Ширина : 704 пикселя
Высота : 384 пикселя
Соотношение сторон : 1,85:1
Частота кадров : 23,976 кадра/сек
Цветовое пространство : YUV
Субдискретизация насыщенности : 4:2:0
Битовая глубина : 8 бит
Тип развёртки : Прогрессивная
Метод сжатия : С потерями
Бит/(Пиксели*Кадры) : 0.282
Размер потока : 1,20 Гбайт (82%)
Библиотека кодирования : XviD 67
Аудио
Идентификатор : 1
Формат : AC-3
Формат/Информация : Audio Coding 3
Расширение режима : CM (complete main)
Параметр Endianness формата : Big
Идентификатор кодека : 2000
Продолжительность : 1 ч. 33 м.
Вид битрейта : Постоянный
Битрейт : 384 Кбит/сек
Каналы : 6 каналов
Расположение каналов : Front: L C R, Side: L R, LFE
Частота : 48,0 КГц
Битовая глубина : 16 бит
Метод сжатия : С потерями
Размер потока : 258 Мбайт (17%)
Выравнивание : Разделение по промежуткам
Продолжительность промежутка : 42 мс. (1,00 видеокадр)
Время предзагрузки промежутка : 500 мс.
-При появлении проф. перевода рип будет перезалит!-
[cybertorrent.ru].t41703.torrent 
Торрент: Зарегистрирован [ 2018-03-19 15:15 ] · 475E321150A9E13FF85F559D0B3D61E49C43834C

Скачать .torrent

Скачать

15 KB

Статус: проверено
Скачан: 1 раз
Размер: 1,46 GB
Профиль [ЛС]
Показать сообщения:    

Текущее время: 22-Май 23:29

Часовой пояс: UTC ± 0



Вы не можете начинать темы
Вы не можете отвечать на сообщения
Вы не можете редактировать свои сообщения
Вы не можете удалять свои сообщения
Вы не можете голосовать в опросах
Вы не можете прикреплять файлы к сообщениям
Вы можете скачивать файлы