Статистика раздачи
Размер:  361 MB   |    Зарегистрирован:  2 месяца 3 дня   |    Скачан:  0 раз

Полного источника не было: Никогда

 
   
 
 

dash ®

Пол:
Не указан
Стаж:
3 месяца 4 дня
Сообщений:
121

Geminiani - Sonates pour le violoncelle avec la basse continue - Les Basses Réunies
Жанр: Classical chamber
Страна-производитель диска: Made in Germany
Год издания диска: 2008
Издатель (лейбл): Alpha
Номер по каталогу: Alpha 123
Дата записи: 2006
Аудиокодек: APE
Тип рипа: image+.cue
Битрейт аудио: lossless
Продолжительность: 66:45
Источник: релизер
сайт-источник/ник/другое: Ice, classicallibrary
Наличие сканов в содержимом раздачи: да
Треклист:
01. Sonata III en Do Majeur : I. Andante [0:01:53.84]
02. II. Allegro [0:04:19.74]
03. III. Affetuoso [0:03:01.68]
04. IV. Allegro [0:02:37.60]
05. Sonate XI op.1 en La Mineur : I. Vivace [0:02:34.72]
06. II. Affetuoso [0:02:29.84]
07. III. Allegro [0:03:09.28]
08. Sonate II en Re Mineur : I. Andante [0:02:17.72]
09. II. Presto [0:02:28.96]
10. III. Adagio [0:00:46.16]
11. IV. Allegro [0:04:14.16]
12. Sonate I en La Majeur : I. Andante [0:01:51.80]
13. II. Allegro [0:03:11.56]
14. III. Andante [0:00:41.28]
15. IV. Allegro [0:03:14.80]
16. Tendrement [0:03:54.12]
17. Sonate 5 en Fa Majeur : Andante [0:00:37.68]
18. II. Allegro moderato [0:01:18.52]
19. III. Adagio [0:03:13.97]
20. IV. Allegro [0:01:44.52]
21. Sonate IV en Si bemol Majeur : I. Andante [0:00:22.56]
22. II. Allegro moderato [0:02:57.45]
23. III.Grave [0:00:41.38]
24. IV. Allegro [0:00:53.16]
25. Tendrement [0:03:35.92]
26. Sonate 6 en La Mineur : I. Adagio [0:00:40.64]
27. II. Allegro assai [0:03:07.94]
28. III. Grave [0:00:28.21]
29. IV. Allegro [0:04:14.22]

Исполнители

Francesco Geminiani (1687-1762)
Sonates pour Violoncelle et Basse Continue opus V & autres pieces
Sonates for violoncello with la basse continue
Bruno Cocset : Violoncelle
Tenor de Violon & Direction
Luca Pianca : Theobre
Les Basses Réunies
Directed By – Bruno Cocset
Contrabass – Richard Myron
Directed By – Bruno Cocset
Harpsichord – Bertrand Cuiller
Theorbo – Luca Pianca
Violin [Tenor De Violon] – Bruno Cocset
Violoncello – Bruno Cocset, Mathurin Matharel
Recording : 27-20 November 2006, Eglise de Pampigny (Suisse)
Audio CD (26 May 2008)

Лог создания рипа

Exact Audio Copy V0.99 prebeta 5 from 4. May 2009
EAC extraction logfile from 26. May 2011, 14:45
Cocset, Pianca, & Les Basses Reunies / Geminiani : Sonates pour Violoncell avec la Basse Continue
Used drive : TSSTcorpCDDVDW SE-S224Q Adapter: 2 ID: 0
Read mode : Secure
Utilize accurate stream : Yes
Defeat audio cache : Yes
Make use of C2 pointers : No
Read offset correction : 6
Overread into Lead-In and Lead-Out : No
Fill up missing offset samples with silence : Yes
Delete leading and trailing silent blocks : No
Null samples used in CRC calculations : Yes
Used interface : Installed external ASPI interface
Used output format : Monkey's Audio Lossless Encoder v3.99 DLL
Sample format : Normal Lossless Compression
TOC of the extracted CD
Track | Start | Length | Start sector | End sector
---------------------------------------------------------
1 | 0:00.00 | 1:53.63 | 0 | 8537
2 | 1:53.63 | 4:19.56 | 8538 | 28018
3 | 6:13.44 | 3:01.51 | 28019 | 41644
4 | 9:15.20 | 2:37.45 | 41645 | 53464
5 | 11:52.65 | 2:34.54 | 53465 | 65068
6 | 14:27.44 | 2:29.63 | 65069 | 76306
7 | 16:57.32 | 3:09.21 | 76307 | 90502
8 | 20:06.53 | 2:17.54 | 90503 | 100831
9 | 22:24.32 | 2:28.72 | 100832 | 112003
10 | 24:53.29 | 0:46.12 | 112004 | 115465
11 | 25:39.41 | 4:14.12 | 115466 | 134527
12 | 29:53.53 | 1:51.60 | 134528 | 142912
13 | 31:45.38 | 3:11.42 | 142913 | 157279
14 | 34:57.05 | 0:41.21 | 157280 | 160375
15 | 35:38.26 | 3:14.60 | 160376 | 174985
16 | 38:53.11 | 3:54.09 | 174986 | 192544
17 | 42:47.20 | 0:37.51 | 192545 | 195370
18 | 43:24.71 | 1:18.39 | 195371 | 201259
19 | 44:43.35 | 3:13.73 | 201260 | 215807
20 | 47:57.33 | 1:44.39 | 215808 | 223646
21 | 49:41.72 | 0:22.42 | 223647 | 225338
22 | 50:04.39 | 2:57.34 | 225339 | 238647
23 | 53:01.73 | 0:41.29 | 238648 | 241751
24 | 53:43.27 | 0:53.12 | 241752 | 245738
25 | 54:36.39 | 3:35.69 | 245739 | 261932
26 | 58:12.33 | 0:40.48 | 261933 | 264980
27 | 58:53.06 | 3:07.71 | 264981 | 279076
28 | 62:01.02 | 0:28.16 | 279077 | 281192
29 | 62:29.18 | 4:14.17 | 281193 | 300259
Range status and errors
Selected range
Filename E:\ICE\G.SpVeBCoV.BC.LBR\Cocset, Pianca, & Les Basses Reunies - Geminiani Sonates pour Violoncell avec la Basse Continue.ape
Peak level 100.0 %
Range quality 100.0 %
Test CRC ED86DE34
Copy CRC ED86DE34
Copy OK
No errors occurred
AccurateRip summary
Track 1 accurately ripped (confidence 2) [ABFDAD76]
Track 2 not present in database
Track 3 accurately ripped (confidence 2) [92F54F4A]
Track 4 accurately ripped (confidence 2) [05EC3BEE]
Track 5 accurately ripped (confidence 2) [C1021CD8]
Track 6 accurately ripped (confidence 2) [F2E41626]
Track 7 accurately ripped (confidence 2) [1C360C00]
Track 8 accurately ripped (confidence 2) [C4590278]
Track 9 accurately ripped (confidence 2) [DB05FD15]
Track 10 accurately ripped (confidence 2) [E49520AF]
Track 11 accurately ripped (confidence 2) [5429C8B5]
Track 12 accurately ripped (confidence 2) [0323FF90]
Track 13 accurately ripped (confidence 2) [30F87A70]
Track 14 accurately ripped (confidence 2) [99D9E131]
Track 15 accurately ripped (confidence 2) [B85B6CD1]
Track 16 accurately ripped (confidence 2) [B85DF274]
Track 17 accurately ripped (confidence 2) [9FF082DA]
Track 18 accurately ripped (confidence 2) [95F95494]
Track 19 accurately ripped (confidence 2) [3EA372BE]
Track 20 not present in database
Track 21 accurately ripped (confidence 2) [25EB29E1]
Track 22 accurately ripped (confidence 2) [B2532A4B]
Track 23 accurately ripped (confidence 2) [190ADCEA]
Track 24 accurately ripped (confidence 2) [8F5ED461]
Track 25 accurately ripped (confidence 2) [3DDB195D]
Track 26 accurately ripped (confidence 2) [8D2D999C]
Track 27 accurately ripped (confidence 2) [931DE221]
Track 28 accurately ripped (confidence 2) [6BABC381]
Track 29 accurately ripped (confidence 2) [79E2465F]
27 track(s) accurately ripped
2 track(s) not present in the AccurateRip database
Some tracks could not be verified as accurate
End of status report

Содержание индексной карты (.CUE)

REM GENRE Baroque
REM DATE 2008
REM DISCID C20FA31D
REM COMMENT "ExactAudioCopy v0.99pb5"
PERFORMER "Les Basses Réunies - Bruno Cocset (violoncelle, ténor de violon & direction), Luca Pianca (théobre), Bertrand Cuiller (clavecin), Mathurin Martharel (violoncelle), Richard Myron (contrebasse)"
TITLE "FRANCESCO GEMINIANI (1687-1762) - Sonates pour le Violoncelle et Basse Continue, opus V (editions : Paris, Le Clerc et Boivin, 1746 ; La Haye, 1746) & autres Pièces"
FILE "Geminiani - Sonates pour le violoncelle avec la basse continue - Les Basses Réunies.ape" WAVE
TRACK 01 AUDIO
TITLE "Sonata III en do majeur: I. Andante"
PERFORMER "Les Basses Réunies"
INDEX 01 00:00:00
TRACK 02 AUDIO
TITLE "II. Allegro"
PERFORMER "Les Basses Réunies"
INDEX 00 01:53:43
INDEX 01 01:53:63
TRACK 03 AUDIO
TITLE "III. Affetuoso"
PERFORMER "Les Basses Réunies"
INDEX 00 06:13:23
INDEX 01 06:13:44
TRACK 04 AUDIO
TITLE "IV. Allegro"
PERFORMER "Les Basses Réunies"
INDEX 00 09:14:74
INDEX 01 09:15:20
TRACK 05 AUDIO
TITLE "Sonate XI opus I (1716) pour violon et basse en la mineur jouée au ténor de violon (édition utilisée : Paris, Le Clerc et Boivin, 1740): I. Vivace"
PERFORMER "Les Basses Réunies"
INDEX 00 11:52:44
INDEX 01 11:52:65
TRACK 06 AUDIO
TITLE "II. Affetuoso"
PERFORMER "Les Basses Réunies"
INDEX 00 14:27:23
INDEX 01 14:27:44
TRACK 07 AUDIO
TITLE "III. Allegro"
PERFORMER "Les Basses Réunies"
INDEX 00 16:57:11
INDEX 01 16:57:32
TRACK 08 AUDIO
TITLE "Sonate II en ré mineur : I. Andante"
PERFORMER "Les Basses Réunies"
INDEX 00 20:06:32
INDEX 01 20:06:53
TRACK 09 AUDIO
TITLE "II. Presto"
PERFORMER "Les Basses Réunies"
INDEX 00 22:24:11
INDEX 01 22:24:32
TRACK 10 AUDIO
TITLE "III. Adagio"
PERFORMER "Les Basses Réunies"
INDEX 00 24:53:08
INDEX 01 24:53:29
TRACK 11 AUDIO
TITLE "IV. Allegro"
PERFORMER "Les Basses Réunies"
INDEX 00 25:39:20
INDEX 01 25:39:41
TRACK 12 AUDIO
TITLE "Sonate I en la majeur : I. Andante"
PERFORMER "Les Basses Réunies"
INDEX 00 29:53:32
INDEX 01 29:53:53
TRACK 13 AUDIO
TITLE "II. Allegro"
PERFORMER "Les Basses Réunies"
INDEX 00 31:45:17
INDEX 01 31:45:38
TRACK 14 AUDIO
TITLE "III. Andante"
PERFORMER "Les Basses Réunies"
INDEX 00 34:56:59
INDEX 01 34:57:05
TRACK 15 AUDIO
TITLE "IV. Allegro"
PERFORMER "Les Basses Réunies"
INDEX 00 35:38:05
INDEX 01 35:38:26
TRACK 16 AUDIO
TITLE "« Tendrement » pour clavecin extrait des “Pieces de Clavecin tirées des differens
Ouvrages”, Londres, 1743: Tendrement"
PERFORMER "Les Basses Réunies"
INDEX 00 38:52:65
INDEX 01 38:53:11
TRACK 17 AUDIO
TITLE "Sonate 5 en Fa Majeur : Andante"
PERFORMER "Les Basses Réunies"
INDEX 00 42:46:74
INDEX 01 42:47:20
TRACK 18 AUDIO
TITLE "II. Allegro moderato"
PERFORMER "Les Basses Réunies"
INDEX 00 43:24:50
INDEX 01 43:24:71
TRACK 19 AUDIO
TITLE "III. Adagio"
PERFORMER "Les Basses Réunies"
INDEX 00 44:43:14
INDEX 01 44:43:35
TRACK 20 AUDIO
TITLE "IV. Allegro"
PERFORMER "Les Basses Réunies"
INDEX 00 47:57:12
INDEX 01 47:57:33
TRACK 21 AUDIO
TITLE "Sonate IV en si bémol majeur : I. Andante"
PERFORMER "Les Basses Réunies"
INDEX 00 49:41:51
INDEX 01 49:41:72
TRACK 22 AUDIO
TITLE "II. Allegro moderato"
PERFORMER "Les Basses Réunies"
INDEX 00 50:04:18
INDEX 01 50:04:39
TRACK 23 AUDIO
TITLE "III.Grave"
PERFORMER "Les Basses Réunies"
INDEX 00 53:01:53
INDEX 01 53:01:73
TRACK 24 AUDIO
TITLE "IV. Allegro"
PERFORMER "Les Basses Réunies"
INDEX 00 53:43:06
INDEX 01 53:43:27
TRACK 25 AUDIO
TITLE "« Tendrement » pour ténor de violon, violoncelle et basse : transcription de
Mathurin Matharel, d’après les “Pieces de Clavecin tirées des differens ouvrages” (à l’origine
Sonate VI opus I pour violon et basse): Tendrement"
PERFORMER "Les Basses Réunies"
INDEX 00 54:36:18
INDEX 01 54:36:39
TRACK 26 AUDIO
TITLE "Sonate 6 en la mineur : I. Adagio"
PERFORMER "Les Basses Réunies"
INDEX 00 58:12:12
INDEX 01 58:12:33
TRACK 27 AUDIO
TITLE "II. Allegro assai"
PERFORMER "Les Basses Réunies"
INDEX 00 58:52:60
INDEX 01 58:53:06
TRACK 28 AUDIO
TITLE "III. Grave"
PERFORMER "Les Basses Réunies"
INDEX 00 62:00:63
INDEX 01 62:01:02
TRACK 29 AUDIO
TITLE "IV. Allegro"
PERFORMER "Les Basses Réunies"
INDEX 00 62:28:73
INDEX 01 62:29:18
[cybertorrent.ru].t41715.torrent 
Торрент: Зарегистрирован [ 2018-03-19 15:15 ] · 5CCF2CF570C3C1AA99665BE41D9BEC17A947C206

Скачать .torrent

Скачать

16 KB

Статус: проверено
Скачан: 0 раз
Размер: 361 MB
Профиль [ЛС]
Показать сообщения:    

Текущее время: 22-Май 23:22

Часовой пояс: UTC ± 0



Вы не можете начинать темы
Вы не можете отвечать на сообщения
Вы не можете редактировать свои сообщения
Вы не можете удалять свои сообщения
Вы не можете голосовать в опросах
Вы не можете прикреплять файлы к сообщениям
Вы можете скачивать файлы