Статистика раздачи
Размер:  204 MB   |    Зарегистрирован:  2 месяца 3 дня   |    Скачан:  0 раз

Полного источника не было: Никогда

 
   
 
 

Frozen ®

Пол:
Не указан
Стаж:
3 месяца 7 дней
Сообщений:
296

Spyzer / Hometown Boy Does Good
Жанр: Blues-Rock/Country Rock
Носитель: WEB
Год издания: 2018
Издатель (лейбл): Legend Record
Страна исполнителя (группы): USA
Аудиокодек: FLAC (*.flac)
Тип рипа: tracks
Битрейт аудио: lossless
Продолжительность: 34:45
Наличие сканов в содержимом раздачи: front
Треклист:
01 Drink More Beer 04:53
02 Doc's Bar 03:08
03 Everyone Loves Me (Born An Asshole) 03:44
04 Tokers Beware 03:23
05 Fool Me Twice 04:20
06 That Woman 02:52
07 Don't Know Why 04:49
08 One for the Boys 03:40
09 Jimson 03:56

Динамический диапазон

foobar2000 1.3.16 / Dynamic Range Meter 1.1.1
log date: 2018-03-06 19:08:48
--------------------------------------------------------------------------------
Analyzed: Spyzer / Hometown Boy Does Good
--------------------------------------------------------------------------------
DR Peak RMS Duration Track
--------------------------------------------------------------------------------
DR17 -0.09 dB -18.91 dB 4:53 01-Drink More Beer
DR14 -0.31 dB -15.96 dB 3:08 02-Doc's Bar
DR15 -0.05 dB -17.73 dB 3:44 03-Everyone Loves Me (Born An Asshole)
DR12 0.00 dB -15.01 dB 3:23 04-Tokers Beware
DR11 -0.24 dB -13.35 dB 4:20 05-Fool Me Twice
DR13 -0.17 dB -14.65 dB 2:52 06-That Woman
DR14 0.00 dB -16.38 dB 4:49 07-Don't Know Why
DR15 -0.17 dB -17.01 dB 3:40 08-One For The Boys
DR14 0.00 dB -17.25 dB 3:56 09-Jimson
--------------------------------------------------------------------------------
Number of tracks: 9
Official DR value: DR14
Samplerate: 44100 Hz
Channels: 2
Bits per sample: 16
Bitrate: 823 kbps
Codec: FLAC

Лог проверки качества

PERFORMER: auCDtect Task Manager, ver. 1.6.0 RC1 build 1.6.0.1
Copyright (c) 2008-2010 y-soft. All rights reserved
http://y-soft.org
ANALYZER: auCDtect: CD records authenticity detector, version 0.8.2
Copyright (c) 2004 Oleg Berngardt. All rights reserved.
Copyright (c) 2004 Alexander Djourik. All rights reserved.
FILE: 01 - Drink More Beer.flac
Size: 30363559 Hash: D361769A1A644CC28B3AC2234CAB568E Accuracy: -m0
Conclusion: CDDA 100%
Signature: 34642E38900BD1C5FAEFBA451C25ADBFB51747D8
FILE: 02 - Doc's Bar.flac
Size: 21484095 Hash: 964CA2B9AE4A372D8CF0AFD5340382A6 Accuracy: -m0
Conclusion: CDDA 100%
Signature: 1FF947B4968592E4E12F867DF616BEBD2B37C009
FILE: 03 - Everyone Loves Me (Born An Asshole).flac
Size: 21218264 Hash: 173A1E42D428B6012688B08631188DC8 Accuracy: -m0
Conclusion: CDDA 100%
Signature: 25A771C2104314ED782E0D21607E4C4A3984D415
FILE: 04 - Tokers Beware.flac
Size: 20208230 Hash: A1787B6F9AB30A8EC27F8AD0EBC1C0EE Accuracy: -m0
Conclusion: CDDA 100%
Signature: 45FE1DE88530A5829D61E6568579BCCCC580A6F2
FILE: 05 - Fool Me Twice.flac
Size: 26411765 Hash: 48812FB54761EA1ED04A2FD3F62C0F2E Accuracy: -m0
Conclusion: CDDA 100%
Signature: D9DC9009C1DCA78FFB0769968A6B94D2B8E55809
FILE: 06 - That Woman.flac
Size: 17773388 Hash: CEA8E5943D02FC9EDA36D4FF7597839C Accuracy: -m0
Conclusion: CDDA 99%
Signature: CD4AD8EAA3CECB6236AB14577D3134CC6CBA6BEB
FILE: 07 - Don't Know Why.flac
Size: 27947869 Hash: ACA250E587FD4E1FB8AFDDD666E736F9 Accuracy: -m0
Conclusion: CDDA 100%
Signature: B5A0BFC2C6B0D238E7A9494762AC7202A4A389E8
FILE: 08 - One For The Boys.flac
Size: 22962026 Hash: 284671176719DFC3CAD079FE28D0D9FA Accuracy: -m0
Conclusion: CDDA 100%
Signature: BF9D3389B71D61C5F2AD24EC1945EC712B87742A
FILE: 09 - Jimson.flac
Size: 24467009 Hash: 406580D9A3C6AAB92D07FF2C81F7181F Accuracy: -m0
Conclusion: CDDA 100%
Signature: 34EC36B81E853C32084A838F4422BD1C61C2D156

Скриншот спектра частот

[cybertorrent.ru].t41729.torrent 
Торрент: Зарегистрирован [ 2018-03-19 15:15 ] · 0954A89417A5E6537AC73FF27B420F68783A7854

Скачать .torrent

Скачать

17 KB

Статус: проверено
Скачан: 0 раз
Размер: 204 MB
Профиль [ЛС]
Показать сообщения:    

Текущее время: 22-Май 23:25

Часовой пояс: UTC ± 0



Вы не можете начинать темы
Вы не можете отвечать на сообщения
Вы не можете редактировать свои сообщения
Вы не можете удалять свои сообщения
Вы не можете голосовать в опросах
Вы не можете прикреплять файлы к сообщениям
Вы можете скачивать файлы