Статистика раздачи
Размер:  884 MB   |    Зарегистрирован:  1 месяц 3 дня   |    Скачан:  0 раз

Полного источника не было: Никогда

 
   
 
 

Катюшка ®

Пол:
Не указан
Стаж:
2 месяца 7 дней
Сообщений:
288

Kayak - Seventeen
Жанр: Progressive Rock
Носитель: CD
Год выпуска диска: 2018
Страна: Netherlands
Производитель диска: Inside Out Music / 19075802022
Аудио кодек: FLAC
Тип рипа: tracks+.cue
Битрейт аудио: lossless
Продолжительность: 60:00 + 36:18
Наличие сканов в содержимом раздачи:
источник: bzp01
Состав:
- Ton Scherpenzeel / keyboards
- Bart Schwertmann / vocals
- Marcel Singor / guitar
- Kristoffer Gildenlow / bass
- Collin Leijenaar (Neal Morse) / drums
With:
- Andy Latimer (Camel) / guitar
Доп. информация: http://www.progarchives.com/artist.asp?id=186

CD1

Продолжительность: 60:00
Трэклист:
01. Somebody (3:04)
02. La Peregrina (11:42)
03. Falling (3:08)
04. Feathers and Tar (3:14)
05. Walk Through Fire (10:23)
06. Ripples on the Water (3:40)
07. All that I Want (3:47)
08. X Marks the Spot (1:58)
09. God on Our Side (3:30)
10. Love, Sail Away (3:12)
11. Cracks (8:50)
12. To an End (3:32)

Отчёт EAC

Exact Audio Copy V1.0 beta 3 from 29. August 2011
EAC extraction logfile from 11. February 2018, 23:07
Kayak / Seventeen CD1
Used drive : MATSHITADVD+-RW UJ8E2 Adapter: 0 ID: 0
Read mode : Secure
Utilize accurate stream : Yes
Defeat audio cache : Yes
Make use of C2 pointers : No
Read offset correction : 103
Overread into Lead-In and Lead-Out : No
Fill up missing offset samples with silence : Yes
Delete leading and trailing silent blocks : No
Null samples used in CRC calculations : Yes
Used interface : Native Win32 interface for Win NT & 2000
Gap handling : Appended to previous track
Used output format : User Defined Encoder
Selected bitrate : 768 kBit/s
Quality : High
Add ID3 tag : No
Command line compressor : C:\Program Files (x86)\Exact Audio Copy\FLAC\FLAC.EXE
Additional command line options : -8 -V -T "ARTIST=%artist%" -T "TITLE=%title%" -T "ALBUM=%albumtitle%" -T "DATE=%year%" -T "TRACKNUMBER=%tracknr%" -T "TOTALTRACKS=%numtracks%" -T "GENRE=%genre%" -T "ALBUMARTIST=%albumartist%" -T "ALBUM ARTIST=%albumartist%" -T "COMMENT=EAC Secure Mode, Test & Copy, AccurateRip, FLAC -8" %source%
TOC of the extracted CD
Track | Start | Length | Start sector | End sector
---------------------------------------------------------
1 | 0:00.00 | 3:03.41 | 0 | 13765
2 | 3:03.41 | 11:42.34 | 13766 | 66449
3 | 14:46.00 | 3:08.57 | 66450 | 80606
4 | 17:54.57 | 3:14.21 | 80607 | 95177
5 | 21:09.03 | 10:23.58 | 95178 | 141960
6 | 31:32.61 | 3:40.18 | 141961 | 158478
7 | 35:13.04 | 3:47.43 | 158479 | 175546
8 | 39:00.47 | 1:58.09 | 175547 | 184405
9 | 40:58.56 | 3:30.72 | 184406 | 200227
10 | 44:29.53 | 3:12.49 | 200228 | 214676
11 | 47:42.27 | 8:50.34 | 214677 | 254460
12 | 56:32.61 | 3:31.08 | 254461 | 270293
Track 1
Filename C:\bzp01\Kayak - Seventeen (2018) [FLAC] {2CD 19075802022}\CD1\01 - Somebody.wav
Pre-gap length 0:00:02.00
Peak level 98.2 %
Extraction speed 2.3 X
Track quality 100.0 %
Test CRC 7B04D828
Copy CRC 7B04D828
Track not present in AccurateRip database
Copy OK
Track 2
Filename C:\bzp01\Kayak - Seventeen (2018) [FLAC] {2CD 19075802022}\CD1\02 - La Peregrina.wav
Peak level 98.6 %
Extraction speed 3.2 X
Track quality 100.0 %
Test CRC F0FD7A4B
Copy CRC F0FD7A4B
Track not present in AccurateRip database
Copy OK
Track 3
Filename C:\bzp01\Kayak - Seventeen (2018) [FLAC] {2CD 19075802022}\CD1\03 - Falling.wav
Peak level 97.8 %
Extraction speed 3.2 X
Track quality 100.0 %
Test CRC 2C236BA0
Copy CRC 2C236BA0
Track not present in AccurateRip database
Copy OK
Track 4
Filename C:\bzp01\Kayak - Seventeen (2018) [FLAC] {2CD 19075802022}\CD1\04 - Feathers and Tar.wav
Peak level 98.2 %
Extraction speed 3.3 X
Track quality 100.0 %
Test CRC B4A5543F
Copy CRC B4A5543F
Track not present in AccurateRip database
Copy OK
Track 5
Filename C:\bzp01\Kayak - Seventeen (2018) [FLAC] {2CD 19075802022}\CD1\05 - Walk Through Fire.wav
Peak level 98.4 %
Extraction speed 4.1 X
Track quality 100.0 %
Test CRC 249656F5
Copy CRC 249656F5
Track not present in AccurateRip database
Copy OK
Track 6
Filename C:\bzp01\Kayak - Seventeen (2018) [FLAC] {2CD 19075802022}\CD1\06 - Ripples on the Water.wav
Peak level 97.8 %
Extraction speed 4.0 X
Track quality 100.0 %
Test CRC C969DA53
Copy CRC C969DA53
Track not present in AccurateRip database
Copy OK
Track 7
Filename C:\bzp01\Kayak - Seventeen (2018) [FLAC] {2CD 19075802022}\CD1\07 - All that I Want.wav
Peak level 98.1 %
Extraction speed 4.1 X
Track quality 100.0 %
Test CRC 93B5846B
Copy CRC 93B5846B
Track not present in AccurateRip database
Copy OK
Track 8
Filename C:\bzp01\Kayak - Seventeen (2018) [FLAC] {2CD 19075802022}\CD1\08 - X Marks the Spot.wav
Peak level 92.5 %
Extraction speed 3.8 X
Track quality 100.0 %
Test CRC 4FC03813
Copy CRC 4FC03813
Track not present in AccurateRip database
Copy OK
Track 9
Filename C:\bzp01\Kayak - Seventeen (2018) [FLAC] {2CD 19075802022}\CD1\09 - God on Our Side.wav
Peak level 98.1 %
Extraction speed 4.3 X
Track quality 100.0 %
Test CRC 270D9160
Copy CRC 270D9160
Track not present in AccurateRip database
Copy OK
Track 10
Filename C:\bzp01\Kayak - Seventeen (2018) [FLAC] {2CD 19075802022}\CD1\10 - Love, Sail Away.wav
Peak level 98.6 %
Extraction speed 4.4 X
Track quality 100.0 %
Test CRC E29B3ABE
Copy CRC E29B3ABE
Track not present in AccurateRip database
Copy OK
Track 11
Filename C:\bzp01\Kayak - Seventeen (2018) [FLAC] {2CD 19075802022}\CD1\11 - Cracks.wav
Peak level 99.1 %
Extraction speed 5.2 X
Track quality 100.0 %
Test CRC 369EBA26
Copy CRC 369EBA26
Track not present in AccurateRip database
Copy OK
Track 12
Filename C:\bzp01\Kayak - Seventeen (2018) [FLAC] {2CD 19075802022}\CD1\12 - To an End.wav
Peak level 79.4 %
Extraction speed 4.9 X
Track quality 100.0 %
Test CRC 924C7EF3
Copy CRC 924C7EF3
Track not present in AccurateRip database
Copy OK
None of the tracks are present in the AccurateRip database
No errors occurred
End of status report
==== Log checksum D33EE298B200CB3AAEFDFEBEB04340682893ADD59BAEC492CAAA58B8E27C2CFA ====

.cue

REM GENRE "Progressive Rock"
REM DATE 2018
REM DISCID AE0E130C
REM COMMENT "ExactAudioCopy v1.0b3"
PERFORMER "Kayak"
TITLE "Seventeen CD1"
FILE "01 - Somebody.wav" WAVE
TRACK 01 AUDIO
TITLE "Somebody"
PERFORMER "Kayak"
INDEX 01 00:00:00
FILE "02 - La Peregrina.wav" WAVE
TRACK 02 AUDIO
TITLE "La Peregrina"
PERFORMER "Kayak"
INDEX 01 00:00:00
FILE "03 - Falling.wav" WAVE
TRACK 03 AUDIO
TITLE "Falling"
PERFORMER "Kayak"
INDEX 01 00:00:00
FILE "04 - Feathers and Tar.wav" WAVE
TRACK 04 AUDIO
TITLE "Feathers and Tar"
PERFORMER "Kayak"
INDEX 01 00:00:00
FILE "05 - Walk Through Fire.wav" WAVE
TRACK 05 AUDIO
TITLE "Walk Through Fire"
PERFORMER "Kayak"
INDEX 01 00:00:00
FILE "06 - Ripples on the Water.wav" WAVE
TRACK 06 AUDIO
TITLE "Ripples on the Water"
PERFORMER "Kayak"
INDEX 01 00:00:00
FILE "07 - All that I Want.wav" WAVE
TRACK 07 AUDIO
TITLE "All that I Want"
PERFORMER "Kayak"
INDEX 01 00:00:00
FILE "08 - X Marks the Spot.wav" WAVE
TRACK 08 AUDIO
TITLE "X Marks the Spot"
PERFORMER "Kayak"
INDEX 01 00:00:00
FILE "09 - God on Our Side.wav" WAVE
TRACK 09 AUDIO
TITLE "God on Our Side"
PERFORMER "Kayak"
INDEX 01 00:00:00
FILE "10 - Love, Sail Away.wav" WAVE
TRACK 10 AUDIO
TITLE "Love, Sail Away"
PERFORMER "Kayak"
INDEX 01 00:00:00
FILE "11 - Cracks.wav" WAVE
TRACK 11 AUDIO
TITLE "Cracks"
PERFORMER "Kayak"
INDEX 01 00:00:00
FILE "12 - To an End.wav" WAVE
TRACK 12 AUDIO
TITLE "To an End"
PERFORMER "Kayak"
INDEX 01 00:00:00

CueTools

[CUETools log; Date: 2018.03.16. 14:35:21; Version: 2.1.6]
[CTDB TOCID: 9RFV.b3GfxQQrkqg908bz3_P6Bw-] found.
Track | CTDB Status
1 | (27/28) Accurately ripped, or (1/28) differs in 3 samples @02:01:72
2 | (27/28) Accurately ripped, or (1/28) differs in 139 samples @00:00:00
3 | (27/28) Accurately ripped, or (1/28) differs in 136 samples @00:00:00
4 | (27/28) Accurately ripped, or (1/28) differs in 162 samples @00:00:00
5 | (27/28) Accurately ripped, or (1/28) differs in 116 samples @00:00:00
6 | (27/28) Accurately ripped, or (1/28) differs in 121 samples @00:00:00
7 | (27/28) Accurately ripped, or (1/28) differs in 157 samples @00:00:00
8 | (27/28) Accurately ripped, or (1/28) differs in 132 samples @00:00:00
9 | (27/28) Accurately ripped, or (1/28) differs in 113 samples @00:00:00
10 | (27/28) Accurately ripped, or (1/28) differs in 117 samples @00:00:00
11 | (27/28) Accurately ripped, or (1/28) differs in 153 samples @00:00:00
12 | (27/28) Accurately ripped, or (1/28) differs in 132 samples @00:00:00
[AccurateRip ID: 001c5236-01031db7-ae0e130c] found.
Track [ CRC | V2 ] Status
01 [ed5e0980|65ae5f91] (0+3/3) Accurately ripped
02 [bd3a3be1|180c2fd9] (0+3/3) Accurately ripped
03 [23240dc0|da5aa7b0] (0+3/3) Accurately ripped
04 [c9479366|1e766a34] (0+3/3) Accurately ripped
05 [728da557|44569848] (0+3/3) Accurately ripped
06 [c69d8a84|e5aaa478] (0+3/3) Accurately ripped
07 [e9c79ac2|5cb40524] (0+3/3) Accurately ripped
08 [2bcde40b|f1ad4995] (0+3/3) Accurately ripped
09 [f3f12916|8c3aede1] (0+3/3) Accurately ripped
10 [d86196ae|5d974799] (0+3/3) Accurately ripped
11 [abbeca1b|ec7b0e96] (0+3/3) Accurately ripped
12 [70a44782|8b243315] (0+3/3) Accurately ripped
Track Peak [ CRC32 ] [W/O NULL] [ LOG ]
-- 99,1 [92F8B3A2] [4B7D4B1E]
01 98,2 [7B04D828] [02A9FB87] CRC32
02 98,6 [F0FD7A4B] [D875020A] CRC32
03 97,8 [2C236BA0] [99EC3374] CRC32
04 98,2 [B4A5543F] [44D5C3E2] CRC32
05 98,4 [249656F5] [A551CD9E] CRC32
06 97,8 [C969DA53] [C5B4BD6C] CRC32
07 98,1 [93B5846B] [670DD3A3] CRC32
08 92,5 [4FC03813] [D289A918] CRC32
09 98,1 [270D9160] [E95A2D06] CRC32
10 98,6 [E29B3ABE] [2BFDBA8B] CRC32
11 99,1 [369EBA26] [6913F05C] CRC32
12 79,4 [924C7EF3] [10E60C14] CRC32

CD 2 Demo's 2016

Продолжительность: 36:18
Трэклист:
01. Cracks (10:16)
02. La Peregrina (12:21)
03. Falling (3:00)
04. Walk Through Fire (10:41)

Отчёт EAC

Exact Audio Copy V1.0 beta 3 from 29. August 2011
EAC extraction logfile from 11. February 2018, 22:31
Kayak / Seventeen CD2 - Demo's 2016
Used drive : MATSHITADVD+-RW UJ8E2 Adapter: 0 ID: 0
Read mode : Secure
Utilize accurate stream : Yes
Defeat audio cache : Yes
Make use of C2 pointers : No
Read offset correction : 103
Overread into Lead-In and Lead-Out : No
Fill up missing offset samples with silence : Yes
Delete leading and trailing silent blocks : No
Null samples used in CRC calculations : Yes
Used interface : Native Win32 interface for Win NT & 2000
Gap handling : Appended to previous track
Used output format : User Defined Encoder
Selected bitrate : 768 kBit/s
Quality : High
Add ID3 tag : No
Command line compressor : C:\Program Files (x86)\Exact Audio Copy\FLAC\FLAC.EXE
Additional command line options : -8 -V -T "ARTIST=%artist%" -T "TITLE=%title%" -T "ALBUM=%albumtitle%" -T "DATE=%year%" -T "TRACKNUMBER=%tracknr%" -T "TOTALTRACKS=%numtracks%" -T "GENRE=%genre%" -T "ALBUMARTIST=%albumartist%" -T "ALBUM ARTIST=%albumartist%" -T "COMMENT=EAC Secure Mode, Test & Copy, AccurateRip, FLAC -8" %source%
TOC of the extracted CD
Track | Start | Length | Start sector | End sector
---------------------------------------------------------
1 | 0:00.00 | 10:16.71 | 0 | 46270
2 | 10:16.71 | 12:21.56 | 46271 | 101901
3 | 22:38.52 | 3:00.72 | 101902 | 115473
4 | 25:39.49 | 10:41.21 | 115474 | 163569
Track 1
Filename C:\bzp01\Kayak - Seventeen (2018) [FLAC] {2CD 19075802022}\CD2\01 - Cracks.wav
Pre-gap length 0:00:02.00
Peak level 98.8 %
Extraction speed 2.9 X
Track quality 100.0 %
Test CRC 73DA2D6E
Copy CRC 73DA2D6E
Track not present in AccurateRip database
Copy OK
Track 2
Filename C:\bzp01\Kayak - Seventeen (2018) [FLAC] {2CD 19075802022}\CD2\02 - La Peregrina.wav
Peak level 98.8 %
Extraction speed 3.7 X
Track quality 100.0 %
Test CRC 89644221
Copy CRC 89644221
Track not present in AccurateRip database
Copy OK
Track 3
Filename C:\bzp01\Kayak - Seventeen (2018) [FLAC] {2CD 19075802022}\CD2\03 - Falling.wav
Peak level 98.8 %
Extraction speed 3.5 X
Track quality 100.0 %
Test CRC 46C422CA
Copy CRC 46C422CA
Track not present in AccurateRip database
Copy OK
Track 4
Filename C:\bzp01\Kayak - Seventeen (2018) [FLAC] {2CD 19075802022}\CD2\04 - Walk Through Fire.wav
Peak level 98.8 %
Extraction speed 4.3 X
Track quality 100.0 %
Test CRC 63EBC3B4
Copy CRC 63EBC3B4
Track not present in AccurateRip database
Copy OK
None of the tracks are present in the AccurateRip database
No errors occurred
End of status report
==== Log checksum 9417DCFD0B1263EB8B87289CBAC294A107933E465A84C5F2ECDF6E9CCE56CB70 ====

.cue

REM GENRE "Progressive Rock"
REM DATE 2018
REM DISCID 26088404
REM COMMENT "ExactAudioCopy v1.0b3"
PERFORMER "Kayak"
TITLE "Seventeen CD2 - Demo's 2016"
FILE "01 - Cracks.wav" WAVE
TRACK 01 AUDIO
TITLE "Cracks"
PERFORMER "Kayak"
INDEX 01 00:00:00
FILE "02 - La Peregrina.wav" WAVE
TRACK 02 AUDIO
TITLE "La Peregrina"
PERFORMER "Kayak"
INDEX 01 00:00:00
FILE "03 - Falling.wav" WAVE
TRACK 03 AUDIO
TITLE "Falling"
PERFORMER "Kayak"
INDEX 01 00:00:00
FILE "04 - Walk Through Fire.wav" WAVE
TRACK 04 AUDIO
TITLE "Walk Through Fire"
PERFORMER "Kayak"
INDEX 01 00:00:00

CueTools

[CUETools log; Date: 2018.03.16. 14:37:14; Version: 2.1.6]
[CTDB TOCID: 3Khpb.P6FWYbLDNcqZrfeYwbiAo-] found.
Track | CTDB Status
1 | (19/19) Accurately ripped
2 | (19/19) Accurately ripped
3 | (19/19) Accurately ripped
4 | (19/19) Accurately ripped
[AccurateRip ID: 000684d1-00199aab-26088404] found.
Track [ CRC | V2 ] Status
01 [621fc1ce|855e6d87] (0+3/3) Accurately ripped
02 [2053987b|fc4228da] (0+3/3) Accurately ripped
03 [88e877ee|04d707db] (0+3/3) Accurately ripped
04 [5f47da14|e47d409b] (0+3/3) Accurately ripped
Track Peak [ CRC32 ] [W/O NULL] [ LOG ]
-- 98,8 [79FB3D78] [948931A8]
01 98,8 [73DA2D6E] [EBDC3C26] CRC32
02 98,8 [89644221] [21A34490] CRC32
03 98,8 [46C422CA] [9DF4D9C4] CRC32
04 98,8 [63EBC3B4] [C7CBF59A] CRC32
[cybertorrent.ru].t41730.torrent 
Торрент: Зарегистрирован [ 2018-03-19 15:15 ] · 07869A7FCA4E2BEEB68F8E04404B131CDAA36AFD

Скачать .torrent

Скачать

76 KB

Статус: проверено
Скачан: 0 раз
Размер: 884 MB
Профиль [ЛС]
Показать сообщения:    

Текущее время: 22-Апр 23:46

Часовой пояс: UTC ± 0



Вы не можете начинать темы
Вы не можете отвечать на сообщения
Вы не можете редактировать свои сообщения
Вы не можете удалять свои сообщения
Вы не можете голосовать в опросах
Вы не можете прикреплять файлы к сообщениям
Вы можете скачивать файлы