Статистика раздачи
Размер:  341 MB   |    Зарегистрирован:  1 месяц 3 дня   |    Скачан:  0 раз

Полного источника не было: Никогда

 
   
 
 

Серёга ®

Пол:
Не указан
Стаж:
2 месяца 7 дней
Сообщений:
299

Jon Tiven Group / Yes I Ram
Жанр: Rhythm & Blues
Носитель: WEB
Год издания: 1999
Издатель (лейбл): New West Records
Страна исполнителя (группы): USA
Аудиокодек: FLAC (*.flac)
Тип рипа: tracks
Битрейт аудио: lossless
Продолжительность: 54:36
Наличие сканов в содержимом раздачи: front
Треклист:
01 All You Ever Gave Me Is the Blues 03:47
02 Never Come Sunrise 03:51
03 Heavy Love 04:11
04 Like a Radio 03:24
05 It's Harder Now 03:45
06 If You Rock Me 02:36
07 Brand New Man 03:33
08 Midnight Train 03:23
09 Yes I Ram 03:26
10 Alcohol 02:46
11 The Fool You're Looking For 04:23
12 The Other Side of Town 03:38
13 Differing Touch 02:27
14 You Showed Your Hand 03:44
15 JessieJon Tiven Group (feat. Jim Carroll) 02:53
16 Badmouth Mama 02:49

Динамический диапазон

foobar2000 1.3.16 / Dynamic Range Meter 1.1.1
log date: 2018-02-15 22:38:22
--------------------------------------------------------------------------------
Analyzed: Jon Tiven Group feat. Jim Carroll / Yes I Ram (1)
Jon Tiven Group / Yes I Ram (2-16)
--------------------------------------------------------------------------------
DR Peak RMS Duration Track
--------------------------------------------------------------------------------
DR12 -0.21 dB -13.33 dB 2:53 15-Jessie
DR10 -0.03 dB -11.03 dB 3:47 01-All You Ever Gave Me Is The Blues
DR12 -0.24 dB -13.28 dB 3:51 02-Never Come Sunrise
DR12 -0.08 dB -13.34 dB 4:11 03-Heavy Love
DR13 -0.02 dB -13.84 dB 3:24 04-Like A Radio
DR13 -0.04 dB -14.53 dB 3:45 05-It's Harder Now
DR10 -0.38 dB -11.70 dB 2:36 06-If You Rock Me
DR13 -0.09 dB -14.74 dB 3:33 07-Brand New Man
DR12 -0.03 dB -13.75 dB 3:23 08-Midnight Train
DR12 -0.04 dB -13.52 dB 3:26 09-Yes I Ram
DR10 -0.04 dB -11.32 dB 2:46 10-Alcohol
DR13 -0.04 dB -15.07 dB 4:23 11-The Fool You're Looking For
DR11 -0.11 dB -12.69 dB 3:38 12-The Other Side Of Town
DR12 -0.05 dB -13.25 dB 2:27 13-Differing Touch
DR13 -0.03 dB -13.97 dB 3:44 14-You Showed Your Hand
DR11 -0.04 dB -12.49 dB 2:49 16-Badmouth Mama
--------------------------------------------------------------------------------
Number of tracks: 16
Official DR value: DR12
Samplerate: 44100 Hz
Channels: 2
Bits per sample: 16
Bitrate: 902 kbps
Codec: FLAC

Лог проверки качества

PERFORMER: auCDtect Task Manager, ver. 1.6.0 RC1 build 1.6.0.1
Copyright (c) 2008-2010 y-soft. All rights reserved
http://y-soft.org
ANALYZER: auCDtect: CD records authenticity detector, version 0.8.2
Copyright (c) 2004 Oleg Berngardt. All rights reserved.
Copyright (c) 2004 Alexander Djourik. All rights reserved.
FILE: 01 - All You Ever Gave Me Is The Blues.flac
Size: 25425049 Hash: D9FCBB1E5B260350D014A4680F3C1186 Accuracy: -m0
Conclusion: CDDA 100%
Signature: 4085A46668D93ABC5A866EC0591EE2026179EF39
FILE: 02 - Never Come Sunrise.flac
Size: 26825064 Hash: 6C0AE8B905730F7725CE50A773BCBA46 Accuracy: -m0
Conclusion: CDDA 100%
Signature: FFF8C8DECA3C8E0A8CFA9C0ACF65B89EF9056E3B
FILE: 03 - Heavy Love.flac
Size: 27807875 Hash: 5B0CFB34DDA2628339668FF7053D4FEA Accuracy: -m0
Conclusion: CDDA 100%
Signature: A84BCFB7E6F5074430B6DA9B46E78AC22F29AADE
FILE: 04 - Like A Radio.flac
Size: 22912129 Hash: 1351A08529C762ACAEDA80D1A7048C9F Accuracy: -m0
Conclusion: CDDA 100%
Signature: FCEC375DA54FE821A1B9C578342634FFDF175622
FILE: 05 - It's Harder Now.flac
Size: 21422205 Hash: 427C97B2FC6AEA4A332046FC9A8B5648 Accuracy: -m0
Conclusion: CDDA 100%
Signature: 8B8CDC047E637C36BD1097A792E0DEFF0C302865
FILE: 06 - If You Rock Me.flac
Size: 16773578 Hash: 3088BC0D2E6920BB3054117E77EEED74 Accuracy: -m0
Conclusion: CDDA 100%
Signature: C9A3BA1C3793FEE923B2B5E46DF184E910CFA6F3
FILE: 07 - Brand New Man.flac
Size: 22542790 Hash: A5DED735044A9331E86BCEDDE6C5126A Accuracy: -m0
Conclusion: CDDA 100%
Signature: 5244736DB57D6C8BFE7DDDB8F23309BF1E02AF91
FILE: 08 - Midnight Train.flac
Size: 21243037 Hash: C9A500C5294F7B9FE0CAA521B12003C9 Accuracy: -m0
Conclusion: CDDA 100%
Signature: 16213DF4981BFE78C99EE2C993CF67CCCE107FA7
FILE: 09 - Yes I Ram.flac
Size: 22069656 Hash: 74CD3BA291B156663C1F9B7F53ABF5CF Accuracy: -m0
Conclusion: CDDA 100%
Signature: 1016A3EF4C8E6F49B1EE3109852AD6A6367E08B8
FILE: 10 - Alcohol.flac
Size: 19077074 Hash: 90C67E0F3FFBA4F3022E83AD6B01C857 Accuracy: -m0
Conclusion: CDDA 100%
Signature: F128BFF848DC07C8CA9723AFC8191E421ECBCC68
FILE: 11 - The Fool You're Looking For.flac
Size: 27066641 Hash: 54803D688E489B5D2851C16B9659E2CF Accuracy: -m0
Conclusion: CDDA 100%
Signature: ABCCBB3B001277ADB9C30D80AC983E9E58065735
FILE: 12 - The Other Side Of Town.flac
Size: 24484530 Hash: 2DC2F0427B6D18157EB226E931BD7871 Accuracy: -m0
Conclusion: CDDA 100%
Signature: 8963A40D9F170B5A541F32F803DA1F58E1B21AC9
FILE: 13 - Differing Touch.flac
Size: 16897159 Hash: 44DD16FB814E9D43A17CFAD385C48E0B Accuracy: -m0
Conclusion: CDDA 100%
Signature: 81B6857BA8C453027E227B8FC282EF995D8C54AA
FILE: 14 - You Showed Your Hand.flac
Size: 24400384 Hash: 1F2FCE5BEA3BB22070BCAD776095D6CF Accuracy: -m0
Conclusion: CDDA 100%
Signature: D907E97C6B090CF02989B2377AD821146D389EDB
FILE: 15 - Jessie.flac
Size: 18962469 Hash: 00913BFF031A0F6B6CFC84C4B12C615A Accuracy: -m0
Conclusion: CDDA 100%
Signature: 5A6A56A853F6825B1579B9B412A54AAB7D1B9EF6
FILE: 16 - Badmouth Mama.flac
Size: 19263552 Hash: C51A7D1F7A8AB0FD9EFF66E542ACB790 Accuracy: -m0
Conclusion: CDDA 100%
Signature: FDC9C1C49C75C096C89C7A4BB971367133AE5BB4

Скриншот спектра частот

Об исполнителе (группе)

http://www.jontiven.com/

Состав

Jon Tiven - Guitar
Alan Merrill - Lead Vocals
Sally Tiven - Bass
Todd Snare - Drums
[cybertorrent.ru].t41733.torrent 
Торрент: Зарегистрирован [ 2018-03-19 15:15 ] · 22093C12CCB79C084CA50F00E765A75158B26D33

Скачать .torrent

Скачать

15 KB

Статус: проверено
Скачан: 0 раз
Размер: 341 MB
Профиль [ЛС]
Показать сообщения:    

Текущее время: 22-Апр 23:53

Часовой пояс: UTC ± 0



Вы не можете начинать темы
Вы не можете отвечать на сообщения
Вы не можете редактировать свои сообщения
Вы не можете удалять свои сообщения
Вы не можете голосовать в опросах
Вы не можете прикреплять файлы к сообщениям
Вы можете скачивать файлы