Статистика раздачи
Размер:  250 MB   |    Зарегистрирован:  1 месяц 2 дня   |    Скачан:  0 раз

Полного источника не было: Никогда

 
   
 
 

kex ®

Пол:
Не указан
Стаж:
2 месяца 7 дней
Сообщений:
324

BUMA Trío [BUMA Trio] / Iscaro Chayle Valotta
Жанр: Fusion / Jazz-Rock
Носитель: WEB
Год издания: 2018
Издатель (лейбл): Web Release [Viajero Inmovil Records]
Страна исполнителя (группы): Argentina
Аудиокодек: FLAC (*.flac)
Тип рипа: tracks
Битрейт аудио: lossless
Продолжительность: 41:14 min
Источник (релизер): bandcamp.com
Наличие сканов в содержимом раздачи:
Треклист:
1. Trespassing. 3:02
2. Todas las Cosas que Hago por tu Amor (All the Things I do for your Love). 4:27
3. Zamba para Times Square. 5:45
4. El Lago Izquierdo. 5:34
5. Nueva Piel. 6:20
6. Song for Ida. 5:53
7. Ojos en la Niebla. 4:50
8. Chaussong. 5:17

DRM.log

foobar2000 1.3.8 / Dynamic Range Meter 1.1.1
log date: 2018-03-17 05:45:12
--------------------------------------------------------------------------------
Analyzed: BUMA Trío / Iscaro Chayle Valotta
--------------------------------------------------------------------------------
DR Peak RMS Duration Track
--------------------------------------------------------------------------------
DR11 -0.47 dB -12.93 dB 3:03 01-Trespassing
DR11 -0.49 dB -12.81 dB 4:28 02-Todas las Cosas que Hago por tu Amor (All the Things I do for your Love)
DR12 -0.41 dB -14.21 dB 5:46 03-Zamba para Times Square
DR12 -0.50 dB -13.57 dB 5:35 04-El Lago Izquierdo
DR12 -0.45 dB -13.44 dB 6:21 05-Nueva Piel
DR12 -0.48 dB -14.26 dB 5:54 06-Song for Ida
DR11 -0.49 dB -12.75 dB 4:51 07-Ojos en la Niebla
DR11 -0.45 dB -13.62 dB 5:17 08-Chaussong
--------------------------------------------------------------------------------
Number of tracks: 8
Official DR value: DR11
Samplerate: 44100 Hz
Channels: 2
Bits per sample: 16
Bitrate: 832 kbps
Codec: FLAC
================================================================================

Лог проверки качества

-----------------------
DON'T MODIFY THIS FILE
-----------------------
PERFORMER: auCDtect Task Manager, ver. 1.6.0 RC1 build 1.6.0.1
Copyright (c) 2008-2010 y-soft. All rights reserved
http://y-soft.org
ANALYZER: auCDtect: CD records authenticity detector, version 0.8.2
Copyright (c) 2004 Oleg Berngardt. All rights reserved.
Copyright (c) 2004 Alexander Djourik. All rights reserved.
FILE: 01 - Trespassing.flac
Size: 19167301 Hash: 107EF33CD4089F178FFD5BF2C68AEC5A Accuracy: -m0
Conclusion: CDDA 100%
Signature: E4CD4602F12BF775F49E86929D3A7B9860BB8DF7
FILE: 02 - Todas las Cosas que Hago por tu Amor (All the Things I do for your Love).flac
Size: 29435943 Hash: E8B0F8E3223447CD446B79B43FA1A63C Accuracy: -m0
Conclusion: CDDA 100%
Signature: 65A431B75224F24D2B9B1D78D962F80CB1A1DA6A
FILE: 03 - Zamba para Times Square.flac
Size: 35740175 Hash: 6854690C7A7DDF38E91182F2E897873A Accuracy: -m0
Conclusion: CDDA 100%
Signature: BA9F9DCC33567891A6DF3A80E13ED7B1708A42DF
FILE: 04 - El Lago Izquierdo.flac
Size: 35024145 Hash: EA7645D04684165973C71629519318F5 Accuracy: -m0
Conclusion: CDDA 100%
Signature: FBBF24F29A0D1EB1A93EB24544F345A6D7D3799F
FILE: 05 - Nueva Piel.flac
Size: 43093737 Hash: A6CC86977A769C12840EFA058023CE43 Accuracy: -m0
Conclusion: CDDA 100%
Signature: 48DEFF703036B3DDBAB2E244208615FBD5A58EEF
FILE: 06 - Song for Ida.flac
Size: 35177983 Hash: 7E0FF7D1E301224999259EE36DDFE9A5 Accuracy: -m0
Conclusion: CDDA 99%
Signature: BD4875A91E1BA343AA50D9DD9C553903C307E856
FILE: 07 - Ojos en la Niebla.flac
Size: 31293852 Hash: 71444B6A31B666F0129483FAEC09D83B Accuracy: -m0
Conclusion: CDDA 100%
Signature: 677F37A90E69D662D08B91E60B34BC9CA7DB0043
FILE: 08 - Chaussong.flac
Size: 33146603 Hash: D3ABB219564BCD3C0E85C488B595E38F Accuracy: -m0
Conclusion: CDDA 100%
Signature: 2303E2C492A283307E2C58BF6F3E4900CDC99569

Об альбоме (сборнике)

released March 15, 2018

Состав

- Darío Iscaro / Electric guitar
- Gonzalo Chayle / Drums
- Pablo Valotto / Electric bass
[cybertorrent.ru].t41765.torrent 
Торрент: Зарегистрирован [ 2018-03-19 15:15 ] · BB7839CC7B652F42D84FDA3E1D8FF3734A73F03F

Скачать .torrent

Скачать

21 KB

Статус: проверено
Скачан: 0 раз
Размер: 250 MB
Профиль [ЛС]
Показать сообщения:    

Текущее время: 22-Апр 14:34

Часовой пояс: UTC ± 0



Вы не можете начинать темы
Вы не можете отвечать на сообщения
Вы не можете редактировать свои сообщения
Вы не можете удалять свои сообщения
Вы не можете голосовать в опросах
Вы не можете прикреплять файлы к сообщениям
Вы можете скачивать файлы