Статистика раздачи
Размер:  474 MB   |    Зарегистрирован:  1 месяц 3 дня   |    Скачан:  0 раз

Полного источника не было: Никогда

 
   
 
 

nic ®

Пол:
Не указан
Стаж:
2 месяца 7 дней
Сообщений:
153

--Airto Moreira - The Best Of Airto - 1994 (Epic-Legacy)-- Жанр: Crossover Jazz, Latin Jazz, World Fusion, Brazilian Jazz, MPB, Fusion
Носитель: CD (compilation, remaster)
Страна-производитель диска (релиза): US
Год издания оригинала: 1994
Издатель (лейбл): Epic-Legacy
Номер по каталогу: ZK 57716
Страна исполнителя (группы) : Brazil / US
Дата / место записи: April, 1972 - 1974
Аудио кодек: FLAC (*.flac)
Тип рипа: (tracks + .cue)
Битрейт аудио: lossless
Наличие сканов в содержимом раздачи: full scans
Продолжительность: 1:04:15
Источник (релизер): goldenwings from RED
Трэклист:
1. Creek (Arroio) (Victor Brazil) - 6:08
2. Flora's Song (Flora Purim) - 8:27
3. Romance of Death (H. Fattoruso) - 7:16
4. San Francisco River (Airto Moreira / Flora Purim) - 4:07
5. Tombo in 7/4 (Airto / Airto Moreira) - 6:21
6. Lydian Riff (M. Leviev) - 5:31
7. Stanley's Tune (S. Clarke) - 4:29
8. Hot Sand (Airto Moreira) - 5:29
9. Branches (O Galho da Roseira) (P. Divina) - 6:58
10. Parana (Hugo Fattoruso / Airto Moreira) - 9:01

Лог создания рипа

Exact Audio Copy V1.0 beta 3 from 29. August 2011
EAC extraction logfile from 19. September 2014, 21:41
Airto Moreira / The Best Of Airto
Used drive : ATAPI iHAS124 D Adapter: 3 ID: 0
Read mode : Secure
Utilize accurate stream : Yes
Defeat audio cache : Yes
Make use of C2 pointers : No
Read offset correction : 6
Overread into Lead-In and Lead-Out : No
Fill up missing offset samples with silence : Yes
Delete leading and trailing silent blocks : No
Null samples used in CRC calculations : Yes
Used interface : Native Win32 interface for Win NT & 2000
Gap handling : Appended to previous track
Used output format : User Defined Encoder
Selected bitrate : 1024 kBit/s
Quality : High
Add ID3 tag : No
Command line compressor : C:\Program Files (x86)\Exact Audio Copy\FLAC\FLAC.EXE
Additional command line options : -8 -V -T "ARTIST=%artist%" -T "TITLE=%title%" -T "ALBUM=%albumtitle%" -T "DATE=%year%" -T "TRACKNUMBER=%tracknr%" -T "TOTALTRACKS=%numtracks%" -T "GENRE=%genre%" -T "PERFORMER=%albuminterpret%" -T "ALBUMARTIST=%albumartist%" -T "DISCNUMBER=%cdnumber%" -T "TOTALDISCS=%totalcds%" -T "COMMENT=EAC V1.0b3_SecuMode_Test&Copy_AccurateRip, Flac -8_by Goldenwings" %source% -o %dest%
TOC of the extracted CD
Track | Start | Length | Start sector | End sector
---------------------------------------------------------
1 | 0:00.00 | 6:12.13 | 0 | 27912
2 | 6:12.13 | 8:30.00 | 27913 | 66162
3 | 14:42.13 | 5:34.37 | 66163 | 91249
4 | 20:16.50 | 4:10.38 | 91250 | 110037
5 | 24:27.13 | 6:24.00 | 110038 | 138837
6 | 30:51.13 | 7:20.00 | 138838 | 171837
7 | 38:11.13 | 4:33.00 | 171838 | 192312
8 | 42:44.13 | 5:32.00 | 192313 | 217212
9 | 48:16.13 | 6:58.72 | 217213 | 248634
10 | 55:15.10 | 9:00.15 | 248635 | 289149
Track 1
Filename E:\Flac Rips\Airto Moreira - The Best Of Airto (1994) {Epic-Legacy - ZK 57716}\01 - Creek (Arroio).wav
Pre-gap length 0:00:02.00
Peak level 88.1 %
Extraction speed 2.1 X
Track quality 99.9 %
Test CRC E17E781D
Copy CRC E17E781D
Accurately ripped (confidence 2) [28A90F7D] (AR v2)
Copy OK
Track 2
Filename E:\Flac Rips\Airto Moreira - The Best Of Airto (1994) {Epic-Legacy - ZK 57716}\02 - Flora's Song.wav
Pre-gap length 0:00:03.05
Peak level 93.3 %
Extraction speed 2.8 X
Track quality 100.0 %
Test CRC 9CED19E5
Copy CRC 9CED19E5
Accurately ripped (confidence 2) [B9DD3692] (AR v2)
Copy OK
Track 3
Filename E:\Flac Rips\Airto Moreira - The Best Of Airto (1994) {Epic-Legacy - ZK 57716}\03 - Romance Of Death.wav
Pre-gap length 0:00:02.43
Peak level 95.2 %
Extraction speed 3.0 X
Track quality 100.0 %
Test CRC FD159F53
Copy CRC FD159F53
Accurately ripped (confidence 2) [21E4C413] (AR v2)
Copy OK
Track 4
Filename E:\Flac Rips\Airto Moreira - The Best Of Airto (1994) {Epic-Legacy - ZK 57716}\04 - San Francisco River.wav
Pre-gap length 0:00:02.55
Peak level 67.5 %
Extraction speed 3.1 X
Track quality 100.0 %
Test CRC 88F381FD
Copy CRC 88F381FD
Accurately ripped (confidence 2) [7ED531C3] (AR v2)
Copy OK
Track 5
Filename E:\Flac Rips\Airto Moreira - The Best Of Airto (1994) {Epic-Legacy - ZK 57716}\05 - Tombo In 7-4.wav
Pre-gap length 0:00:03.00
Peak level 100.0 %
Extraction speed 3.4 X
Track quality 100.0 %
Test CRC 1A6445D1
Copy CRC 1A6445D1
Accurately ripped (confidence 2) [091D4605] (AR v2)
Copy OK
Track 6
Filename E:\Flac Rips\Airto Moreira - The Best Of Airto (1994) {Epic-Legacy - ZK 57716}\06 - Lydian Riff.wav
Pre-gap length 0:00:02.63
Peak level 46.8 %
Extraction speed 3.7 X
Track quality 100.0 %
Test CRC 36829659
Copy CRC 36829659
Accurately ripped (confidence 2) [7747F54F] (AR v2)
Copy OK
Track 7
Filename E:\Flac Rips\Airto Moreira - The Best Of Airto (1994) {Epic-Legacy - ZK 57716}\07 - Stanley's Tune.wav
Pre-gap length 0:00:03.10
Peak level 100.0 %
Extraction speed 3.7 X
Track quality 100.0 %
Test CRC 95D946E8
Copy CRC 95D946E8
Accurately ripped (confidence 2) [DCB64526] (AR v2)
Copy OK
Track 8
Filename E:\Flac Rips\Airto Moreira - The Best Of Airto (1994) {Epic-Legacy - ZK 57716}\08 - Hot Sand.wav
Pre-gap length 0:00:03.20
Peak level 93.0 %
Extraction speed 3.6 X
Track quality 99.9 %
Test CRC 37461BCC
Copy CRC 37461BCC
Accurately ripped (confidence 2) [25D7ECD2] (AR v2)
Copy OK
Track 9
Filename E:\Flac Rips\Airto Moreira - The Best Of Airto (1994) {Epic-Legacy - ZK 57716}\09 - Branches (O Galho Da Roseira).wav
Pre-gap length 0:00:02.50
Peak level 95.3 %
Extraction speed 3.9 X
Track quality 99.9 %
Test CRC D76E46E1
Copy CRC D76E46E1
Accurately ripped (confidence 2) [09FB5CE6] (AR v2)
Copy OK
Track 10
Filename E:\Flac Rips\Airto Moreira - The Best Of Airto (1994) {Epic-Legacy - ZK 57716}\10 - Parana.wav
Peak level 98.7 %
Extraction speed 4.6 X
Track quality 100.0 %
Test CRC FC949FD6
Copy CRC FC949FD6
Accurately ripped (confidence 2) [90B80523] (AR v2)
Copy OK
All tracks accurately ripped
No errors occurred
End of status report
==== Log checksum 380B22D2F3CA5220D4C8D68CE9EC9F3A715F3F3419AD8775D1F49A2FADF1EE60 ====

Содержание индексной карты (.CUE):

REM GENRE "Latin Jazz"
REM DATE 1994
REM DISCID A10F0F0A
REM COMMENT "ExactAudioCopy v1.0b3"
PERFORMER "Airto Moreira"
TITLE "The Best Of Airto"
FILE "01 - Creek (Arroio).wav" WAVE
TRACK 01 AUDIO
TITLE "Creek (Arroio)"
PERFORMER "Airto Moreira"
INDEX 01 00:00:00
TRACK 02 AUDIO
TITLE "Flora's Song"
PERFORMER "Airto Moreira"
INDEX 00 06:09:08
FILE "02 - Flora's Song.wav" WAVE
INDEX 01 00:00:00
TRACK 03 AUDIO
TITLE "Romance Of Death"
PERFORMER "Airto Moreira"
INDEX 00 08:27:32
FILE "03 - Romance Of Death.wav" WAVE
INDEX 01 00:00:00
TRACK 04 AUDIO
TITLE "San Francisco River"
PERFORMER "Airto Moreira"
INDEX 00 05:31:57
FILE "04 - San Francisco River.wav" WAVE
INDEX 01 00:00:00
TRACK 05 AUDIO
TITLE "Tombo In 7-4"
PERFORMER "Airto Moreira"
INDEX 00 04:07:38
FILE "05 - Tombo In 7-4.wav" WAVE
INDEX 01 00:00:00
TRACK 06 AUDIO
TITLE "Lydian Riff"
PERFORMER "Airto Moreira"
INDEX 00 06:21:12
FILE "06 - Lydian Riff.wav" WAVE
INDEX 01 00:00:00
TRACK 07 AUDIO
TITLE "Stanley's Tune"
PERFORMER "Airto Moreira"
INDEX 00 07:16:65
FILE "07 - Stanley's Tune.wav" WAVE
INDEX 01 00:00:00
TRACK 08 AUDIO
TITLE "Hot Sand"
PERFORMER "Airto Moreira"
INDEX 00 04:29:55
FILE "08 - Hot Sand.wav" WAVE
INDEX 01 00:00:00
TRACK 09 AUDIO
TITLE "Branches (O Galho Da Roseira)"
PERFORMER "Airto Moreira"
INDEX 00 05:29:25
FILE "09 - Branches (O Galho Da Roseira).wav" WAVE
INDEX 01 00:00:00
FILE "10 - Parana.wav" WAVE
TRACK 10 AUDIO
TITLE "Parana"
PERFORMER "Airto Moreira"
INDEX 01 00:00:00

Лог проверки качества

-----------------------
DON'T MODIFY THIS FILE
-----------------------
PERFORMER: auCDtect Task Manager, ver. 1.6.0 RC1 build 1.6.0.1
Copyright (c) 2008-2010 y-soft. All rights reserved
http://y-soft.org
ANALYZER: auCDtect: CD records authenticity detector, version 0.8.2
Copyright (c) 2004 Oleg Berngardt. All rights reserved.
Copyright (c) 2004 Alexander Djourik. All rights reserved.
FILE: 10 - Parana.flac
Size: 51742593 Hash: C9A2080D3E02809566CAB40C623C39A0 Accuracy: -m0
Conclusion: CDDA 100%
Signature: 039F5C882EAFA8E061FD239014B23136589C3F00
FILE: 09 - Branches (O Galho Da Roseira).flac
Size: 38683713 Hash: 4013A73AED2C003914E556C8AFB9EE3E Accuracy: -m0
Conclusion: CDDA 99%
Signature: 2A081C5AEA921981BC101296F76657600AC7AEBD
FILE: 08 - Hot Sand.flac
Size: 39334343 Hash: 0B95016CB9F0B628F202EF3A08197BD4 Accuracy: -m0
Conclusion: CDDA 100%
Signature: 45EEBF375F35A4D4EF818451CB11E02D491E90A2
FILE: 07 - Stanley's Tune.flac
Size: 34977546 Hash: A4C3A38C20FBC146E99E5A2A9D094FB5 Accuracy: -m0
Conclusion: CDDA 99%
Signature: A58BC98ED5BA958C6DA748F8E53F0997408B56BD
FILE: 06 - Lydian Riff.flac
Size: 39337418 Hash: E6D1BBF98DE4095B5866E09CDABF5E58 Accuracy: -m0
Conclusion: CDDA 100%
Signature: 7442E82B66C2C0022CB0B3AE5F0A31FB75132092
FILE: 05 - Tombo In 7-4.flac
Size: 40640630 Hash: BD4F3DE3D978BE67673E5C6B32C1C05C Accuracy: -m0
Conclusion: CDDA 100%
Signature: 7D941AD813E4C428FA3D28924F9F4348EAA7E262
FILE: 04 - San Francisco River.flac
Size: 26496381 Hash: 8A2C2B50523391C4007BCD355640E59A Accuracy: -m0
Conclusion: CDDA 100%
Signature: A10ACD4EBD53ADC6F2C48130DC9D3D2F93716BC5
FILE: 03 - Romance Of Death.flac
Size: 38615646 Hash: 9BC38326114B66DBDDDC3F43662C727D Accuracy: -m0
Conclusion: CDDA 100%
Signature: 53458EB26BCA434828707CAE36A404E79C31C7E5
FILE: 02 - Flora's Song.flac
Size: 51765828 Hash: 5EE03B75DD6B75E7658C17F5DE9FA8CF Accuracy: -m0
Conclusion: MPEG 95%
Signature: 579079F822DEA2154908A19972EAA7931D4AB887
FILE: 01 - Creek (Arroio).flac
Size: 40891276 Hash: D0FA727FA38CF28DFD86B7FEEB760348 Accuracy: -m0
Conclusion: MPEG 95%
Signature: 1D7C97B52F5D2BD8E198A13587E4C58155E47E2B

Спектрограммы сомнительных треков

Лог CUETools

[CUETools log; Date: 3/17/2018 8:43:38 AM; Version: 2.1.5]
[CTDB TOCID: eQ4txAHCLt1zZOT7zdOE.99km.Q-] found.
Track | CTDB Status
1 | (6/6) Accurately ripped
2 | (6/6) Accurately ripped
3 | (6/6) Accurately ripped
4 | (6/6) Accurately ripped
5 | (6/6) Accurately ripped
6 | (6/6) Accurately ripped
7 | (6/6) Accurately ripped
8 | (6/6) Accurately ripped
9 | (6/6) Accurately ripped
10 | (6/6) Accurately ripped
[AccurateRip ID: 0017b3c7-00bcaffd-a10f0f0a] found.
Track [ CRC | V2 ] Status
01 [2d9c0df6|28a90f7d] (2+6/8) Accurately ripped
02 [c40d9d78|b9dd3692] (2+6/8) Accurately ripped
03 [0bdf7a82|21e4c413] (2+6/8) Accurately ripped
04 [6aa4e04b|7ed531c3] (2+6/8) Accurately ripped
05 [29e52ff9|091d4605] (2+6/8) Accurately ripped
06 [200bd5b1|7747f54f] (2+6/8) Accurately ripped
07 [39b37402|dcb64526] (2+6/8) Accurately ripped
08 [38ae68c9|25d7ecd2] (2+6/8) Accurately ripped
09 [82972351|09fb5ce6] (2+6/8) Accurately ripped
10 [294f8882|90b80523] (0+6/6) Accurately ripped
Track Peak [ CRC32 ] [W/O NULL] [ LOG ]
-- 100.0 [9FF84986] [E4CFC4BD]
01 88.1 [E17E781D] [2717CF80] CRC32
02 93.3 [9CED19E5] [746277CD] CRC32
03 95.2 [FD159F53] [47491D7C] CRC32
04 67.5 [88F381FD] [6F418A0D] CRC32
05 100.0 [1A6445D1] [B24EC610] CRC32
06 46.8 [36829659] [6539AA30] CRC32
07 100.0 [95D946E8] [0F6516A8] CRC32
08 93.0 [37461BCC] [8687066A] CRC32
09 95.3 [D76E46E1] [C1552354] CRC32
10 98.7 [FC949FD6] [66226C9C] CRC32

Замер динамического диапазона

foobar2000 1.3.10 / Замер динамического диапазона (DR) 1.1.1
Дата отчёта: 2018-03-17 08:42:01
--------------------------------------------------------------------------------
Анализ: Airto Moreira / The Best Of Airto
--------------------------------------------------------------------------------
DR Пики RMS Продолжительность трека
--------------------------------------------------------------------------------
DR14 -1.09 дБ -16.81 дБ 6:12 01-Creek (Arroio)
DR14 -0.60 дБ -18.48 дБ 8:30 02-Flora's Song
DR13 -0.42 дБ -16.05 дБ 5:34 03-Romance Of Death
DR12 -3.40 дБ -18.15 дБ 4:11 04-San Francisco River
DR12 0.00 дБ -15.58 дБ 6:24 05-Tombo In 7-4
DR13 -6.59 дБ -22.42 дБ 7:20 06-Lydian Riff
DR10 0.00 дБ -11.56 дБ 4:33 07-Stanley's Tune
DR13 -0.63 дБ -15.42 дБ 5:32 08-Hot Sand
DR12 -0.42 дБ -17.39 дБ 6:59 09-Branches (O Galho Da Roseira)
DR11 -0.11 дБ -14.95 дБ 9:00 10-Parana
--------------------------------------------------------------------------------
Количество треков: 10
Реальные значения DR: DR12
Частота: 44100 Гц
Каналов: 2
Разрядность: 16
Битрейт: 766 кбит/с
Кодек: FLAC
================================================================================
-

Back

Диск

Об альбоме (сборнике):

AllMusic Review by Richard S. Ginell писал(а):

Состав

1. Alto Flute, Flute [Bass], Soprano Saxophone – Joe Farrell; Bass – Ron Carter; Percussion – Airto; Piano, Electric Piano – Chick Corea, Nelson Ayres; Producer – Creed Taylor
2. Alto Flute, Flute [Bass], Soprano Saxophone – Joe Farrell; Bass – Ron Carter; Flute – Hubert Laws; Guitar – Jay Berliner; Percussion – Airto; Piano – Keith Jarrett; Producer – Creed Taylor
3. Acoustic Guitar, Electric Guitar, Twelve-String Guitar – David Amaro; Bass, Vocals – Ringo Thielman; Drums, Vocals – Jorge Fattoruso; Keyboards, Harmonica, Vocals – Hugo Fattoruso; Percussion, Drums, Vocals – Airto; Percussion, Vocals – Flora Purim; Producer – Creed Taylor
4. Acoustic Guitar, Electric Guitar, Twelve-String Guitar – David Amaro; Bass, Vocals – Ringo Thielman; Drums, Vocals – Jorge Fattoruso; Keyboards, Harmonica, Vocals – Hugo Fattoruso; Percussion, Drums, Vocals – Airto; Percussion, Vocals – Flora Purim; Producer – Creed Taylor
5. Acoustic Guitar, Electric Guitar, Twelve-String Guitar – David Amaro; Bass, Vocals – Ringo Thielman; Drums, Vocals – Jorge Fattoruso; Keyboards, Harmonica, Vocals – Hugo Fattoruso; Percussion, Drums, Vocals – Airto; Percussion, Vocals – Flora Purim; Producer – Creed Taylor
6. Bassoon – Jane Taylor; Clarinet – Eddie Daniels; Electric Bass – Alex Blake; Electric Guitar – Gabriel Delorme; Keyboards – Milco Leviev; Oboe – George Marge; Percussion, Drums, Vocals – Airto; Producer – Creed Taylor; Vocals, Effects [Vocal Special Effects] – Flora Purim
7. Electric Bass – Stanley Clarke; Electric Guitar – David Amaro; Keyboards – George Duke; Percussion, Drums, Vocals – Airto; Producer – Billy Cobham
8. Electric Bass – Stanley Clarke; Electric Guitar – Gabriel Delorme; Percussion, Drums, Vocals – Airto; Percussion, Vocals – Flora Purim; Piano [Acoustic], Synthesizer [ARP] – George Duke; Producer – Billy Cobham
9. Bass – Ringo Thielman; Drums – Jorge Fattoruso; Guitar – David Amaro; Keyboards – Hugo Fattoruso; Percussion, Drums, Vocals – Airto; Producer – Creed Taylor; Vocals – Flora Purim
10. Bass – Ringo Thielman; Drums – Jorge Fattoruso; Guitar – David Amaro; Keyboards – Hugo Fattoruso; Percussion, Drums, Vocals – Airto; Producer – Creed Taylor; Vocals – Flora Purim
-
[cybertorrent.ru].t41766.torrent 
Торрент: Зарегистрирован [ 2018-03-19 15:15 ] · D9ACF371862AB03BB839C12B1B4F6F0C94AD38FC

Скачать .torrent

Скачать

20 KB

Статус: проверено
Скачан: 0 раз
Размер: 474 MB
Профиль [ЛС]
Показать сообщения:    

Текущее время: 22-Апр 16:08

Часовой пояс: UTC ± 0



Вы не можете начинать темы
Вы не можете отвечать на сообщения
Вы не можете редактировать свои сообщения
Вы не можете удалять свои сообщения
Вы не можете голосовать в опросах
Вы не можете прикреплять файлы к сообщениям
Вы можете скачивать файлы