Статистика раздачи
Размер:  212 MB   |    Зарегистрирован:  2 месяца 4 дня   |    Скачан:  0 раз

Полного источника не было: Никогда

 
   
 
 

norvil ®

Пол:
Не указан
Стаж:
3 месяца 8 дней
Сообщений:
185

Idée Manu [Idee Manu] / Oktopus - The Music of Boris Blacher
Жанр: Jazz Avant-Garde / Free Jazz
Носитель: WEB
Год издания: 2018
Издатель (лейбл): Web Release [Between The Lines]
Аудиокодек: FLAC (*.flac)
Тип рипа: tracks
Битрейт аудио: lossless
Продолжительность: 43:46 min
Источник (релизер): 7digital.com
Наличие сканов в содержимом раздачи:
Треклист:
01. Krebs (Prélude No. 5). 3:04
02. Oktopus (Prélude No. 15). 4:10
03. Prélude No. 10 (Solo Piano, Original B.B.). 0:47
04. Anemone (2. Sonatine). 4:45
05. Tentakel (M. Keller, Inspired by Ornament No. 7). 3:57
06. Seenadel (M. Keller, Solo Piano, Inspired by Prélude No. 9). 1:03
07. Carcharodon (Prélude No. 11). 6:07
08. Dugong (Ornament No. 2). 5:28
09. Prélude No. 3 (Solo Piano, Original B.B.). 0:49
10. Zitteraal (Prélude No. 7). 3:00
11. Hippocamp (M. Keller, Inspired by Prélude No. 14). 6:33
12. Prélude No. 16 (Solo Piano, Original B.B.). 1:41
13. Sberk (Prélude No. 20). 2:24
Total Time: 43:46

DRM.log

foobar2000 1.3.8 / Dynamic Range Meter 1.1.1
log date: 2018-03-17 06:32:29
--------------------------------------------------------------------------------
Analyzed: Idée Manu / Oktopus - The Music of Boris Blacher
--------------------------------------------------------------------------------
DR Peak RMS Duration Track
--------------------------------------------------------------------------------
DR13 -3.10 dB -20.52 dB 3:04 01-Krebs (Prélude No. 5)
DR11 -1.30 dB -14.21 dB 4:10 02-Oktopus (Prélude No. 15)
DR12 -4.61 dB -19.20 dB 0:47 03-Prélude No. 10 (Solo Piano, Original B.B.)
DR14 -0.14 dB -18.01 dB 4:45 04-Anemone (2. Sonatine)
DR10 -2.02 dB -15.48 dB 3:57 05-Tentakel (M. Keller, Inspired by Ornament No. 7)
DR9 -6.11 dB -19.72 dB 1:03 06-Seenadel (M. Keller, Solo Piano, Inspired by Prélude No. 9)
DR8 -1.50 dB -13.58 dB 6:07 07-Carcharodon (Prélude No. 11)
DR14 -0.11 dB -18.70 dB 5:28 08-Dugong (Ornament No. 2)
DR17 -3.11 dB -23.30 dB 0:49 09-Prélude No. 3 (Solo Piano, Original B.B.)
DR10 -1.53 dB -14.60 dB 3:00 10-Zitteraal (Prélude No. 7)
DR15 -0.87 dB -20.19 dB 6:33 11-Hippocamp (M. Keller, Inspired by Prélude No. 14)
DR14 -6.15 dB -25.93 dB 1:41 12-Prélude No. 16 (Solo Piano, Original B.B.)
DR11 -0.30 dB -13.69 dB 2:24 13-Sberk (Prélude No. 20)
--------------------------------------------------------------------------------
Number of tracks: 13
Official DR value: DR12
Samplerate: 44100 Hz
Channels: 2
Bits per sample: 16
Bitrate: 793 kbps
Codec: FLAC
================================================================================

Лог проверки качества

-----------------------
DON'T MODIFY THIS FILE
-----------------------
PERFORMER: auCDtect Task Manager, ver. 1.6.0 RC1 build 1.6.0.1
Copyright (c) 2008-2010 y-soft. All rights reserved
http://y-soft.org
ANALYZER: auCDtect: CD records authenticity detector, version 0.8.2
Copyright (c) 2004 Oleg Berngardt. All rights reserved.
Copyright (c) 2004 Alexander Djourik. All rights reserved.
FILE: 13. Sberk (Prélude No. 20).flac
Size: 14296217 Hash: EAF6F29FF76F1B4A28CE48DFE31C44B8 Accuracy: -m0
Conclusion: CDDA 100%
Signature: A057C55E60B2049E1D131E77246B90267E245EC2
FILE: 12. Prélude No. 16 (Solo Piano, Original B.B.).flac
Size: 5305201 Hash: C94C43F0727566B5704F54E14B99E830 Accuracy: -m0
Conclusion: CDDA 100%
Signature: 6999309CFCCA24BC2F187AD7369450732702C967
FILE: 11. Hippocamp (M. Keller, Inspired by Prélude No. 14).flac
Size: 26779652 Hash: E3F0C39BCB13FCD103342B758A243A20 Accuracy: -m0
Conclusion: CDDA 100%
Signature: E3C22FE4135BFD029A396258A0498EE9CC90C16C
FILE: 10. Zitteraal (Prélude No. 7).flac
Size: 14701810 Hash: 74179C42178BDD5ED72A04458C01C1C5 Accuracy: -m0
Conclusion: CDDA 100%
Signature: D7829B036BDCEDE21B5DDD9D54A29216B2844233
FILE: 09. Prélude No. 3 (Solo Piano, Original B.B.).flac
Size: 2461539 Hash: EAEB3A17536687D6EC541BEAD54861B9 Accuracy: -m0
Conclusion: CDDA 100%
Signature: 7489942749F49B498AB62F6035DCD8D69974CD5E
FILE: 08. Dugong (Ornament No. 2).flac
Size: 26054626 Hash: 884F66A7A255051CE4758B8E3B7E67F1 Accuracy: -m0
Conclusion: CDDA 100%
Signature: FA27F07F769B79819B8751098C04908F9A2E0E47
FILE: 07. Carcharodon (Prélude No. 11).flac
Size: 35305645 Hash: 7CA533A94D24FB0136CB3542726204D8 Accuracy: -m0
Conclusion: CDDA 100%
Signature: 9EB373538CFC68B2E3F3AD349C0DB6AFCDB18142
FILE: 06. Seenadel (M. Keller, Solo Piano, Inspired by Prélude No. 9).flac
Size: 3409658 Hash: 97BD3F969C3ACD35015990E0856A54CE Accuracy: -m0
Conclusion: CDDA 86%
Signature: 9C5CB06050A416AA61101F25EE37DCB69AD1BA6F
FILE: 05. Tentakel (M. Keller, Inspired by Ornament No. 7).flac
Size: 20990843 Hash: E83FC3AA0BC24D91F069F96A592F36F1 Accuracy: -m0
Conclusion: CDDA 100%
Signature: 4F62E4799BC4BE80E5714586746E40F33DB6B803
FILE: 04. Anemone (2. Sonatine).flac
Size: 25391978 Hash: 87CA1746F75C9232610261EF8E1D9ECA Accuracy: -m0
Conclusion: CDDA 100%
Signature: 3FF66A4184FB771496E37070B970CC4CBF9EDC47
FILE: 03. Prélude No. 10 (Solo Piano, Original B.B.).flac
Size: 2753004 Hash: 20E363F745477D0DC4B92C482986052E Accuracy: -m0
Conclusion: CDDA 85%
Signature: ECFA8501983F2C578FA92A5F5450584BFC3801FF
FILE: 02. Oktopus (Prélude No. 15).flac
Size: 28218300 Hash: 4554265F4C074FD3E01E7098F946A153 Accuracy: -m0
Conclusion: CDDA 100%
Signature: FCC28DAFAA5B78936A90E70296ADEF01FFFEC05E
FILE: 01. Krebs (Prélude No. 5).flac
Size: 13699121 Hash: 486FB20A59DE2C39FE52DD78915AB39B Accuracy: -m0
Conclusion: CDDA 100%
Signature: AFDDB3097C9661A5F3AC55E4517707539A92B1BB
[cybertorrent.ru].t41770.torrent 
Торрент: Зарегистрирован [ 2018-03-19 15:15 ] · A6A8F6FDA13E6664C9DD7C5D1582700306549E37

Скачать .torrent

Скачать

18 KB

Статус: проверено
Скачан: 0 раз
Размер: 212 MB
Профиль [ЛС]
Показать сообщения:    

Текущее время: 23-Май 18:29

Часовой пояс: UTC ± 0



Вы не можете начинать темы
Вы не можете отвечать на сообщения
Вы не можете редактировать свои сообщения
Вы не можете удалять свои сообщения
Вы не можете голосовать в опросах
Вы не можете прикреплять файлы к сообщениям
Вы можете скачивать файлы