Статистика раздачи
Размер:  250 MB   |    Зарегистрирован:  1 месяц 2 дня   |    Скачан:  0 раз

Полного источника не было: Никогда

 
   
 
 

android ®

Пол:
Не указан
Стаж:
2 месяца 7 дней
Сообщений:
221

Daryl Hall & John Oates - Abandoned Luncheonette
Жанр: Pop Rock, Soft Rock
Носитель: CD
Страна-производитель диска (релиза): USA
Год издания: 1973
Издатель (лейбл): Atlantic Records
Номер по каталогу: 7 19139-2
Страна исполнителя (группы): USA
Аудиокодек: FLAC (*.flac)
Тип рипа: image+.cue
Битрейт аудио: lossless
Продолжительность: 00:37:14
Источник (релизер): собственный рип
Наличие сканов в содержимом раздачи: да
Треклист:
1. When The Morning Comes
2. Had I Known You Better Then
3. Las Vegas Turnaround (The Stewardess Song)
4. She's Gone
5. I'm Just A Kid (Don't Make Me Feel Like A Man)
6. Abandoned Luncheonette
7. Lady Rain
8. Laughing Boy
9. Everytime I Look At You

Лог создания рипа

Exact Audio Copy V1.3 from 2. September 2016
Отчёт EAC об извлечении, выполненном 15. марта 2018, 19:02
Daryl Hall & John Oates / Abandoned Luncheonette
Дисковод: ASUS DRW-24B3ST Adapter: 1 ID: 0
Режим чтения : Достоверность
Использование точного потока : Да
Отключение кэша аудио : Да
Использование указателей C2 : Нет
Коррекция смещения при чтении : 6
Способность читать области Lead-in и Lead-out : Нет
Заполнение пропущенных сэмплов тишиной : Да
Удаление блоков с тишиной в начале и конце : Нет
При вычислениях CRC использовались нулевые сэмплы : Да
Интерфейс : Встроенный Win32-интерфейс для Win NT/2000
Выходной формат : Пользовательский кодировщик
Выбранный битрейт : 1024 kBit/s
Качество : Высокий
Добавление ID3-тега : Нет
Утилита сжатия : C:\Program Files (x86)\Exact Audio Copy\Flac\flac.exe
Дополнительные параметры : -V -8 -T "Date=%year%" -T "Genre=%genre%" %source%
TOC извлечённого CD
Трек | Старт | Длительность | Начальный сектор | Конечный сектор
---------------------------------------------------------------------
1 | 0:00.32 | 3:14.00 | 32 | 14581
2 | 3:14.32 | 3:26.05 | 14582 | 30036
3 | 6:40.37 | 2:59.38 | 30037 | 43499
4 | 9:40.00 | 5:15.47 | 43500 | 67171
5 | 14:55.47 | 3:20.45 | 67172 | 82216
6 | 18:16.17 | 3:58.30 | 82217 | 100096
7 | 22:14.47 | 4:25.28 | 100097 | 119999
8 | 26:40.00 | 3:32.17 | 120000 | 135916
9 | 30:12.17 | 7:02.35 | 135917 | 167601
Характеристики диапазона извлечения и сообщения об ошибках
Выбранный диапазон
Имя файла E:\Torrents\Daryl Hall & John Oates - 1973 - Abandoned Luncheonette\Daryl Hall & John Oates - Abandoned Luncheonette.wav
Пиковый уровень 100.0 %
Скорость извлечения 7.6 X
Качество диапазона 99.9 %
CRC теста 91735134
CRC копии 91735134
Копирование... OK
Ошибок не произошло
AccurateRip: сводка
Трек 1 : извлечено точно (доверие 50) [407ACF41] (AR v2)
Трек 2 : извлечено точно (доверие 50) [A914F794] (AR v2)
Трек 3 : извлечено точно (доверие 51) [D232984A] (AR v2)
Трек 4 : извлечено точно (доверие 51) [AD873C05] (AR v2)
Трек 5 : извлечено точно (доверие 50) [20E0A7FB] (AR v2)
Трек 6 : извлечено точно (доверие 50) [24BE17EB] (AR v2)
Трек 7 : извлечено точно (доверие 50) [5AF763E4] (AR v2)
Трек 8 : извлечено точно (доверие 51) [E51EBE65] (AR v2)
Трек 9 : извлечено точно (доверие 51) [9893132D] (AR v2)
Все треки извлечены точно
Конец отчёта
==== Контрольная сумма отчёта 208BABBB51F75FE0600FAF75178B003262A6B296E06978BF375893CEDFC0ED32 ====

Замер динамического диапазона

foobar2000 1.3.17 / Dynamic Range Meter 1.1.1
log date: 2018-03-15 19:05:44
--------------------------------------------------------------------------------
Analyzed: Daryl Hall & John Oates / Abandoned Luncheonette
--------------------------------------------------------------------------------
DR Peak RMS Duration Track
--------------------------------------------------------------------------------
DR12 -0.34 dB -16.67 dB 3:14 01-When The Morning Comes
DR12 -2.23 dB -17.64 dB 3:26 02-Had I Known You Better Then
DR12 -2.15 dB -17.38 dB 3:00 03-Las Vegas Turnaround (the stewardess song)
DR12 -0.16 dB -16.01 dB 5:16 04-She's Gone
DR15 0.00 dB -20.17 dB 3:21 05-I'm Just A Kid (Don't Make Me Feel Like A Man)
DR12 -2.02 dB -17.13 dB 3:58 06-Abandoned Luncheonette
DR11 -1.43 dB -16.76 dB 4:25 07-Lady Rain
DR12 -3.56 dB -20.38 dB 3:32 08-Laughing Boy
DR11 -1.95 dB -16.39 dB 7:02 09-Everytime I Look At You
--------------------------------------------------------------------------------
Number of tracks: 9
Official DR value: DR12
Samplerate: 44100 Hz
Channels: 2
Bits per sample: 16
Bitrate: 818 kbps
Codec: FLAC
================================================================================

Состав

Bass – Steve "Fontz" Gelfand
Drums – Bernard Purdie
Guitar [Electric] – Hugh McCracken
Mellotron – Chris Bond
Oboe – Joe Farrell
Percussion – Ralph MacDonald
Lead Vocals, Acoustic Guitar – John Oates
Lead Vocals, Electric Piano, Mandolin – Daryl Hall
[cybertorrent.ru].t41775.torrent 
Торрент: Зарегистрирован [ 2018-03-19 15:15 ] · 97C0F730F89E86C2990915B80E88B64FB68A7B4A

Скачать .torrent

Скачать

21 KB

Статус: проверено
Скачан: 0 раз
Размер: 250 MB
Профиль [ЛС]
Показать сообщения:    

Текущее время: 22-Апр 14:35

Часовой пояс: UTC ± 0



Вы не можете начинать темы
Вы не можете отвечать на сообщения
Вы не можете редактировать свои сообщения
Вы не можете удалять свои сообщения
Вы не можете голосовать в опросах
Вы не можете прикреплять файлы к сообщениям
Вы можете скачивать файлы