Статистика раздачи
Размер:  167 MB   |    Зарегистрирован:  3 месяца 12 дней   |    Скачан:  0 раз

Полного источника не было: Никогда

Личеров:  2  [  0 KB/s  ]  
 
   
 
 

lopster ®

Пол:
Не указан
Стаж:
3 месяца 12 дней
Сообщений:
612

Portfolio Год выпуска: 2015
Жанр: короткометражка
Продолжительность: 00:15:57-Режиссёр: Никита Тамаров
В главных ролях: Ирина Чеснокова, Владимир Левшаков, Александра Никитина, Таисия Родина, Максим Бобков-Описание: Что будет, если отношения «заказчик-исполнитель», перенести в сферу, где эти отношения выглядят как минимум абсурдно, например, похороны дедушки? Родственники хотят внести изменения уже после того, как тело отпето и закопано по всем правилам, а подрядчики не знают, как это сделать, но выкручиваются «в рамках бюджета».- -Качество: WEBRip-AVC
Формат: MKV
Видео кодек: AVC
Аудио кодек: AAС
Видео: 1280x720, 25 fps, ~1 338 kbps avg, 0.058 bit/pixel
Аудио: 44,1 kHz, AAC, 2ch, ~126 kbps
субтитры: английские (hardsub)

скриншоты

MediaInfo

General
Unique ID : 185319483365429847810841677274592225418 (0x8B6B3BF671A2E25799FDC92B225EA88A)
Complete name : D:\Mult\Portfolio.2015.WEBRip-AVC.mkv
Format : Matroska
Format version : Version 4 / Version 2
File size : 167 MiB
Duration : 15 min
Overall bit rate : 1 466 kb/s
Encoded date : UTC 2017-10-23 09:12:12
Writing application : mkvmerge v13.0.0 ('The Juggler') 64bit
Writing library : libebml v1.3.4 + libmatroska v1.4.5
Video
ID : 1
Format : AVC
Format/Info : Advanced Video Codec
Format profile : Main@L3.1
Format settings, CABAC : Yes
Format settings, ReFrames : 3 frames
Codec ID : V_MPEG4/ISO/AVC
Duration : 15 min
Bit rate : 1 338 kb/s
Width : 1 280 pixels
Height : 720 pixels
Display aspect ratio : 16:9
Frame rate mode : Constant
Frame rate : 25.000 FPS
Color space : YUV
Chroma subsampling : 4:2:0
Bit depth : 8 bits
Scan type : Progressive
Bits/(Pixel*Frame) : 0.058
Stream size : 153 MiB (91%)
Default : Yes
Forced : No
Color range : Limited
Color primaries : BT.709
Transfer characteristics : BT.709
Matrix coefficients : BT.709
Audio
ID : 2
Format : AAC
Format/Info : Advanced Audio Codec
Format profile : LC
Codec ID : A_AAC
Duration : 15 min
Bit rate : 126 kb/s
Channel(s) : 2 channels
Channel positions : Front: L R
Sampling rate : 44.1 kHz
Frame rate : 43.066 FPS (1024 spf)
Compression mode : Lossy
Stream size : 14.3 MiB (9%)
Default : Yes
Forced : No
[cybertorrent.ru].t418.torrent 
Торрент: Зарегистрирован [ 2018-02-15 15:48 ] · 476260A3AA039DE83063D0F1D610395C4F7954DF

Скачать .torrent

Скачать

14 KB

Статус: проверено
Скачан: 0 раз
Размер: 167 MB
Профиль [ЛС]
Показать сообщения:    

Текущее время: 28-Май 03:25

Часовой пояс: UTC ± 0



Вы не можете начинать темы
Вы не можете отвечать на сообщения
Вы не можете редактировать свои сообщения
Вы не можете удалять свои сообщения
Вы не можете голосовать в опросах
Вы не можете прикреплять файлы к сообщениям
Вы можете скачивать файлы