Статистика раздачи
Размер:  429 MB   |    Зарегистрирован:  1 месяц 6 дней   |    Скачан:  0 раз

Полного источника не было: Никогда

 
   
 
 

craft ®

Пол:
Не указан
Стаж:
2 месяца 10 дней
Сообщений:
432

Circus Of Power / Magic and Madness
Жанр: Hard Rock
Носитель: CD
Страна-производитель диска (релиза): Austria
Год издания: 1993
Издатель (лейбл): Columbia Records
Страна исполнителя (группы): USA
Аудиокодек: FLAC (*.flac)
Тип рипа: image+.cue
Битрейт аудио: lossless
Продолжительность: 00:58:43
Источник (релизер): Собственный рип
Наличие сканов в содержимом раздачи: да
Треклист:
1. Swamp Devil
2. Evil Woman
3. Heaven & Hell
4. Circles
5. Poison Girl
6. Shine
7. Dreams Tonight
8. Mama Tequila
9. Black Roses
10. Waitin' for the Wizard
11. Outta My Head
12. Slip Away

Лог создания рипа

Exact Audio Copy V1.0 beta 6 from 9. April 2015
EAC extraction logfile from 6. March 2018, 21:47
Circus of Power / Magic & Madness
Used drive : Optiarc DVD RW AD-7700S Adapter: 1 ID: 1
Read mode : Secure
Utilize accurate stream : Yes
Defeat audio cache : Yes
Make use of C2 pointers : No
Read offset correction : 48
Overread into Lead-In and Lead-Out : No
Fill up missing offset samples with silence : Yes
Delete leading and trailing silent blocks : No
Null samples used in CRC calculations : Yes
Used interface : Native Win32 interface for Win NT & 2000
Used output format : User Defined Encoder
Selected bitrate : 1024 kBit/s
Quality : High
Add ID3 tag : No
Command line compressor : C:\Program Files (x86)\Exact Audio Copy\FLAC\FLAC.EXE
Additional command line options : -V -8 -T "Date=%year%" -T "Genre=%genre%" %source%
TOC of the extracted CD
Track | Start | Length | Start sector | End sector
---------------------------------------------------------
1 | 0:00.00 | 6:08.67 | 0 | 27666
2 | 6:08.67 | 6:49.35 | 27667 | 58376
3 | 12:58.27 | 3:51.18 | 58377 | 75719
4 | 16:49.45 | 4:26.62 | 75720 | 95731
5 | 21:16.32 | 5:29.28 | 95732 | 120434
6 | 26:45.60 | 6:34.60 | 120435 | 150044
7 | 33:20.45 | 3:53.25 | 150045 | 167544
8 | 37:13.70 | 5:24.00 | 167545 | 191844
9 | 42:37.70 | 3:59.00 | 191845 | 209769
10 | 46:36.70 | 4:34.20 | 209770 | 230339
11 | 51:11.15 | 3:13.70 | 230340 | 244884
12 | 54:25.10 | 4:18.15 | 244885 | 264249
Range status and errors
Selected range
Filename C:\Users\Олег\Desktop\Circus of Power - Magic & Madness.wav
Peak level 100.0 %
Extraction speed 4.7 X
Range quality 100.0 %
Test CRC 677F92B0
Copy CRC 677F92B0
Copy OK
No errors occurred
AccurateRip summary
Track 1 accurately ripped (confidence 11) [66AD3A47] (AR v2)
Track 2 accurately ripped (confidence 11) [BDEF4BDE] (AR v2)
Track 3 accurately ripped (confidence 11) [D742B501] (AR v2)
Track 4 accurately ripped (confidence 11) [3FE550F4] (AR v2)
Track 5 accurately ripped (confidence 11) [49C9E065] (AR v2)
Track 6 accurately ripped (confidence 11) [18B51AAC] (AR v2)
Track 7 accurately ripped (confidence 11) [B983179A] (AR v2)
Track 8 accurately ripped (confidence 11) [F4129148] (AR v2)
Track 9 accurately ripped (confidence 11) [403A76F2] (AR v2)
Track 10 accurately ripped (confidence 11) [4A76C53B] (AR v2)
Track 11 accurately ripped (confidence 11) [29E5858F] (AR v2)
Track 12 accurately ripped (confidence 11) [8764A83F] (AR v2)
All tracks accurately ripped
End of status report
---- CUETools DB Plugin V2.1.6
[CTDB TOCID: FD2ey1jl9htb2ThszIZMmPUR6oA-] found
Submit result: FD2ey1jl9htb2ThszIZMmPUR6oA- has been confirmed
Track | CTDB Status
1 | (25/25) Accurately ripped
2 | (25/25) Accurately ripped
3 | (25/25) Accurately ripped
4 | (25/25) Accurately ripped
5 | (25/25) Accurately ripped
6 | (25/25) Accurately ripped
7 | (24/25) Accurately ripped
8 | (24/25) Accurately ripped
9 | (25/25) Accurately ripped
10 | (25/25) Accurately ripped
11 | (25/25) Accurately ripped
12 | (25/25) Accurately ripped
==== Log checksum 3314C4261DFD15FA6504C0EFCC7379C65FA301C2C45F912472564864B06328BE ====

Состав

Ricky Beck Malher - Guitar
Ryan Maher - Drums
Marc Frappier - Bass
Daniel Rey - Guitar
Alex Mitchell - Vocals
[cybertorrent.ru].t41829.torrent 
Торрент: Зарегистрирован [ 2018-03-19 19:00 ] · 030881777036E86F3315150A0CA5C52163925D19

Скачать .torrent

Скачать

18 KB

Статус: проверено
Скачан: 0 раз
Размер: 429 MB
Профиль [ЛС]
Показать сообщения:    

Текущее время: 25-Апр 21:59

Часовой пояс: UTC ± 0



Вы не можете начинать темы
Вы не можете отвечать на сообщения
Вы не можете редактировать свои сообщения
Вы не можете удалять свои сообщения
Вы не можете голосовать в опросах
Вы не можете прикреплять файлы к сообщениям
Вы можете скачивать файлы