Статистика раздачи
Размер:  3,54 GB   |    Зарегистрирован:  1 месяц 3 дня   |    Скачан:  0 раз

Полного источника не было: Никогда

 
   
 
 

rocky ®

Пол:
Не указан
Стаж:
2 месяца 7 дней
Сообщений:
256

Лыжные гонки / Кубок мира 2017-2018 / Фалун, Швеция / Мужчины / Масс-старт 15 км / Классический стиль
Вид спорта: Лыжные гонки
Дата/Год выпуска: 17.03.2018
Язык комментариев: Русский
Комментаторы: Д. Панкратов и Т. Тимошенко / Интершум
Описание: Лыжные гонки / Кубок мира 2017-2018 / Фалун, Швеция / Мужчины / Масс-старт 15 км / Классический стиль--Говорят наши дети. Делимся воспоминаниями, как своими собственными, так и своих детей!
Автор рипа: Флудилка
Доп. информация: Филоля клевая
В спасибо тыкать необязательно- Конкурс на лучший дизайн флага РуТрекерОрг
Качество: HDTV
Формат видео: TS
Видео: AVC/H.264, 1920x1080 (16:9),25,000 кадров/сек, 12800kbps
Аудио: MP2, 48000 Hz, 2 channels, stereo, 192 kbps

Продолжительность

00:36:31

Скрины

MediaInfo

General
ID : 1 (0x1)
Complete name : Y:\раздачи\Лыжи. Фалун. Масс-старт 15 км, классика. Злобный.ts
Format : MPEG-TS
File size : 3.54 GiB
Duration : 36 min 31 s
Overall bit rate mode : Variable
Overall bit rate : 13.9 Mb/s
Video
ID : 204 (0xCC)
Menu ID : 2204 (0x89C)
Format : AVC
Format/Info : Advanced Video Codec
Format profile : High@L4
Format settings, CABAC : Yes
Format settings, RefFrames : 4 frames
Codec ID : 27
Duration : 36 min 31 s
Bit rate : 12.8 Mb/s
Width : 1 920 pixels
Height : 1 080 pixels
Display aspect ratio : 16:9
Frame rate : 25.000 FPS
Standard : Component
Color space : YUV
Chroma subsampling : 4:2:0
Bit depth : 8 bits
Scan type : Interlaced
Scan type, store method : Separated fields
Scan order : Top Field First
Bits/(Pixel*Frame) : 0.247
Stream size : 3.27 GiB (92%)
Color range : Limited
Color primaries : BT.709
Transfer characteristics : BT.709
Matrix coefficients : BT.709
Audio #1
ID : 304 (0x130)
Menu ID : 2204 (0x89C)
Format : MPEG Audio
Format version : Version 1
Format profile : Layer 2
Codec ID : 3
Duration : 36 min 31 s
Bit rate mode : Constant
Bit rate : 192 kb/s
Channel(s) : 2 channels
Sampling rate : 48.0 kHz
Compression mode : Lossy
Stream size : 50.2 MiB (1%)
Language : Russian
Audio #2
ID : 305 (0x131)
Menu ID : 2204 (0x89C)
Format : MPEG Audio
Format version : Version 1
Format profile : Layer 2
Codec ID : 3
Duration : 36 min 31 s
Bit rate mode : Constant
Bit rate : 192 kb/s
Channel(s) : 2 channels
Sampling rate : 48.0 kHz
Compression mode : Lossy
Stream size : 50.2 MiB (1%)

Результаты

1. Большунов

Внимание! Если у вас что-то не проигрывается, Кауна не видно, Губерниева не слышно, Кержаков не промахнулся: большая просьба ознакомиться с содержимым составленного для вашего удобства FAQ.

FAQ по просмотру MKV/h.264/AAC

  • Смогу ли я запустить AVC фильм на своём компьютере?
  • Сампл из раздачи не воспроизводится/тормозит или отсутствует звук/изображение. Что делать?
  • Что такое H.264/AVC и зачем он нужен?
  • Что за дурацкий формат .MKV?
  • Почему MKV? Чем AVI хуже?
  • Не могу переключить/включить/выключить аудио/видео дорожки и/или субтитры. Что делать?
  • Как сделать так, чтобы по умолчанию при просмотре MKV файлов нужные/ненужные субтитры были включены/выключены, и/или сразу проигрывалась дорожка на нужном мне языке?
  • Будут ли фильмы в таком формате проигрываться на бытовых плеерах без компьютера?
  • Проигрываю фильм, а картинка очень сильно отличается от скринов/бледная/перенасыщенная. Что не так?
  • Можно ли сконвертировать AVC в DVD?
  • Почему сплюснута картинка / в характеристиках видео указано два разрешения / что такое анаморфное разрешение?
  • Зачем релизёры обманывают качающих и пишут в заголовке 720p/1080p, а на самом деле раздают видеоматериалы в непонятных разрешениях?
  • Можно ли вывести многоканальный FLAC/AAC-звук на внешний ресивер?
  • У меня 2-канальная акустика/стереонаушники. При просмотре видео почти не слышно/совсем не слышно речь/разговоры, играют только фоновые звуки. Что делать?
  • У меня стоит CoreAVC версии 1.9.5 или младше. При воспроизведении картинка рассыпается на квадраты и разноцветные пятна. Кривой рип?
  • Всё прочитал(-а), решения своей проблемы не нашёл(-шла)/не смог(-ла) разобраться. Что делать?
  • -

    Список мордашек которым запрещено скачивать мои релизики

    Абама, Тягнибок, Ярош, Тимошенко, Микки-маус, Меркель, мужу её, Бандере, Чингиз-Хану, Дракуле, Новодворской, Новодворской еще раз, Борману, Музычке и третий раз Новодворской...
    И ТЕМ КТО НЕ УЧАСТВУЕТ В КОНКУРСЕ. Так-же ivantachaev, пусть Бабцова качает. Ну и Ахеджаковой. Чо уж. Простите... простите... простите...
    Как обойти блокировку и скачать Не Баггину ваще фигню
    [cybertorrent.ru].t41837.torrent 
    Торрент: Зарегистрирован [ 2018-03-19 19:00 ] · 11457A2978BE20B8C735EF53FF866EF6E246B5BE

    Скачать .torrent

    Скачать

    18 KB

    Статус: проверено
    Скачан: 0 раз
    Размер: 3,54 GB
    Профиль [ЛС]
    Показать сообщения:    

    Текущее время: 22-Апр 23:55

    Часовой пояс: UTC ± 0



    Вы не можете начинать темы
    Вы не можете отвечать на сообщения
    Вы не можете редактировать свои сообщения
    Вы не можете удалять свои сообщения
    Вы не можете голосовать в опросах
    Вы не можете прикреплять файлы к сообщениям
    Вы можете скачивать файлы