Статистика раздачи
Размер:  312 MB   |    Зарегистрирован:  1 месяц 4 дня   |    Скачан:  0 раз

Полного источника не было: Никогда

 
   
 
 

craft ®

Пол:
Не указан
Стаж:
2 месяца 9 дней
Сообщений:
432

Gradinata Nord / Valtellina Boyz
Жанр: Hard Rock/Punk/Rock & Roll
Носитель: CD
Страна-производитель диска (релиза): Italy
Год издания: 2010
Издатель (лейбл): Bacio Records
Номер по каталогу: BaCio 01
Страна исполнителя (группы): Italy
Аудиокодек: FLAC (*.flac)
Тип рипа: image+.cue
Битрейт аудио: lossless
Продолжительность: 39:36
Источник (релизер): интернет
Наличие сканов в содержимом раздачи: да
Треклист:
1. Valtellina Boyz
2. La Frangia Dei Cattivi
3. Una Bira Al Nait
4. Ancora Al Bracio
5. Gradinata Rock
6. Valley Sleazy Girls
7. Palla Al Centro
8. Sciatera Beach Nightmare
9. R.S. Army

Лог создания рипа

Exact Audio Copy V1.0 beta 3 from 29. August 2011
EAC extraction logfile from 20. April 2013, 14:55
Gradinata Nord / Valtellina Boyz
Used drive : Optiarc DVD RW AD-7260S Adapter: 1 ID: 1
Read mode : Secure
Utilize accurate stream : Yes
Defeat audio cache : Yes
Make use of C2 pointers : No
Read offset correction : 48
Overread into Lead-In and Lead-Out : No
Fill up missing offset samples with silence : Yes
Delete leading and trailing silent blocks : No
Null samples used in CRC calculations : Yes
Used interface : Native Win32 interface for Win NT & 2000
Used output format : Internal WAV Routines
Sample format : 44.100 Hz; 16 Bit; Stereo
TOC of the extracted CD
Track | Start | Length | Start sector | End sector
---------------------------------------------------------
1 | 0:00.00 | 3:51.49 | 0 | 17373
2 | 3:51.49 | 3:50.63 | 17374 | 34686
3 | 7:42.37 | 4:15.58 | 34687 | 53869
4 | 11:58.20 | 3:32.20 | 53870 | 69789
5 | 15:30.40 | 3:49.27 | 69790 | 86991
6 | 19:19.67 | 4:27.63 | 86992 | 107079
7 | 23:47.55 | 3:13.20 | 107080 | 121574
8 | 27:01.00 | 3:39.40 | 121575 | 138039
9 | 30:40.40 | 8:55.62 | 138040 | 178226
Range status and errors
Selected range
Filename C:\Мои документы\Gradinata Nord - 2010 - Valtellina Boyz.wav
Peak level 100.0 %
Extraction speed 3.6 X
Range quality 100.0 %
Test CRC 8D228571
Copy CRC 8D228571
Copy OK
No errors occurred
AccurateRip summary
Track 1 not present in database
Track 2 not present in database
Track 3 not present in database
Track 4 not present in database
Track 5 not present in database
Track 6 not present in database
Track 7 not present in database
Track 8 not present in database
Track 9 not present in database
None of the tracks are present in the AccurateRip database
End of status report
---- CUETools DB Plugin V2.1.4
[CTDB TOCID: mQlNFy6c64RYDOenYHWGgH2aD8g-] disk not present in database
Submit result: mQlNFy6c64RYDOenYHWGgH2aD8g- has been uploaded
==== Log checksum 9F62B844F24CD8D515FFEFD90A7D39D898F0DBA78FC17D232F57D17F11D16C5C ====

Содержание индексной карты (.CUE)

REM GENRE "Heavy Metal"
REM DATE 2010
REM DISCID 63094809
REM COMMENT "ExactAudioCopy v1.0b3"
PERFORMER "Gradinata Nord"
TITLE "Valtellina Boyz"
FILE "Gradinata Nord - 2010 - Valtellina Boyz.wav" WAVE
TRACK 01 AUDIO
TITLE "Valtellina Boyz"
PERFORMER "Gradinata Nord"
INDEX 01 00:00:00
TRACK 02 AUDIO
TITLE "La Frangia Dei Cattivi"
PERFORMER "Gradinata Nord"
INDEX 00 03:48:61
INDEX 01 03:51:49
TRACK 03 AUDIO
TITLE "Una Birra Al Nait"
PERFORMER "Gradinata Nord"
INDEX 00 07:39:44
INDEX 01 07:42:37
TRACK 04 AUDIO
TITLE "Ancora Al Braccio"
PERFORMER "Gradinata Nord"
INDEX 00 11:54:59
INDEX 01 11:58:20
TRACK 05 AUDIO
TITLE "Gradinata Rock"
PERFORMER "Gradinata Nord"
INDEX 00 15:28:40
INDEX 01 15:30:40
TRACK 06 AUDIO
TITLE "Valley Sleazy Girls"
PERFORMER "Gradinata Nord"
INDEX 00 19:17:18
INDEX 01 19:19:67
TRACK 07 AUDIO
TITLE "Palla Al Centro"
PERFORMER "Gradinata Nord"
INDEX 00 23:45:26
INDEX 01 23:47:55
TRACK 08 AUDIO
TITLE "Sciatera Beach Nightmare"
PERFORMER "Gradinata Nord"
INDEX 00 26:58:22
INDEX 01 27:01:00
TRACK 09 AUDIO
TITLE "R.S. Army"
PERFORMER "Gradinata Nord"
INDEX 00 30:36:17
INDEX 01 30:40:40
[cybertorrent.ru].t41841.torrent 
Торрент: Зарегистрирован [ 2018-03-19 19:00 ] · 7CF66DABA89F378C28E61B9EE0AA7CAA92A4546B

Скачать .torrent

Скачать

13 KB

Статус: проверено
Скачан: 0 раз
Размер: 312 MB
Профиль [ЛС]
Показать сообщения:    

Текущее время: 24-Апр 14:15

Часовой пояс: UTC ± 0



Вы не можете начинать темы
Вы не можете отвечать на сообщения
Вы не можете редактировать свои сообщения
Вы не можете удалять свои сообщения
Вы не можете голосовать в опросах
Вы не можете прикреплять файлы к сообщениям
Вы можете скачивать файлы