Статистика раздачи
Размер:  2,57 GB   |    Зарегистрирован:  1 месяц 2 дня   |    Скачан:  0 раз

Полного источника не было: Никогда

 
   
 
 

Awrora ®

Пол:
Не указан
Стаж:
2 месяца 7 дней
Сообщений:
624

Кубок Мира 2017-18. 8-й этап. Осло-Хольменколлен (Норвегия)
Мужчины. Гонка преследования 12,5 км
Вид спорта: Биатлон
Комментарий: Профессиональный
Язык комментариев: Русский / Интершум-Описание: Кубок Мира 2017-18. 8-й этап. Осло-Хольменколлен (Норвегия). Мужчины. Гонка преследования 12,5 км.-Автор рипа: Настольный теннисист
Качество: HDTV
Формат: TS
Видео кодек: AVC
Аудио кодек: MP2
Видео: MPEG4 Video (H264) 1920x1080 (16:9) 25fps 9843kbps
Аудио 1-2: MPEG Audio 48000Hz stereo 192kbps

Скриншоты

Продолжительность

00:34:11

MediaInfo

General
ID : 1 (0x1)
Complete name : Y:\раздачи\Осло М Преследование. Злобный.ts
Format : MPEG-TS
File size : 2.57 GiB
Duration : 34 min 11 s
Overall bit rate mode : Variable
Overall bit rate : 10.8 Mb/s
Video
ID : 204 (0xCC)
Menu ID : 2204 (0x89C)
Format : AVC
Format/Info : Advanced Video Codec
Format profile : High@L4
Format settings, CABAC : Yes
Format settings, RefFrames : 4 frames
Format settings, GOP : M=4, N=28
Codec ID : 27
Duration : 34 min 11 s
Bit rate : 9 843 kb/s
Width : 1 920 pixels
Height : 1 080 pixels
Display aspect ratio : 16:9
Frame rate : 25.000 FPS
Standard : Component
Color space : YUV
Chroma subsampling : 4:2:0
Bit depth : 8 bits
Scan type : Interlaced
Scan type, store method : Separated fields
Scan order : Top Field First
Bits/(Pixel*Frame) : 0.190
Stream size : 2.35 GiB (91%)
Color range : Limited
Color primaries : BT.709
Transfer characteristics : BT.709
Matrix coefficients : BT.709
Audio #1
ID : 304 (0x130)
Menu ID : 2204 (0x89C)
Format : MPEG Audio
Format version : Version 1
Format profile : Layer 2
Codec ID : 3
Duration : 34 min 11 s
Bit rate mode : Constant
Bit rate : 192 kb/s
Channel(s) : 2 channels
Sampling rate : 48.0 kHz
Compression mode : Lossy
Stream size : 47.0 MiB (2%)
Language : Russian
Audio #2
ID : 305 (0x131)
Menu ID : 2204 (0x89C)
Format : MPEG Audio
Format version : Version 1
Format profile : Layer 2
Codec ID : 3
Duration : 34 min 11 s
Bit rate mode : Constant
Bit rate : 192 kb/s
Channel(s) : 2 channels
Sampling rate : 48.0 kHz
Compression mode : Lossy
Stream size : 47.0 MiB (2%)
[cybertorrent.ru].t41842.torrent 
Торрент: Зарегистрирован [ 2018-03-19 19:00 ] · CD4F5A74343FE29649FC92C1DEFE7F740ADF918F

Скачать .torrent

Скачать

13 KB

Статус: проверено
Скачан: 0 раз
Размер: 2,57 GB
Профиль [ЛС]
Показать сообщения:    

Текущее время: 22-Апр 14:36

Часовой пояс: UTC ± 0



Вы не можете начинать темы
Вы не можете отвечать на сообщения
Вы не можете редактировать свои сообщения
Вы не можете удалять свои сообщения
Вы не можете голосовать в опросах
Вы не можете прикреплять файлы к сообщениям
Вы можете скачивать файлы