Статистика раздачи
Размер:  1,1 GB   |    Зарегистрирован:  1 месяц 2 дня   |    Скачан:  0 раз

Полного источника не было: Никогда

 
   
 
 

Awrora ®

Пол:
Не указан
Стаж:
2 месяца 7 дней
Сообщений:
624

Кубок Мира 2017-18. 8-й этап. Осло-Хольменколлен (Норвегия)
Мужчины. Гонка преследования 12,5 км
Вид спорта: Биатлон
Комментарий: Профессиональный
Язык комментариев: Русский / Интершум-Описание: Кубок Мира 2017-18. 8-й этап. Осло-Хольменколлен (Норвегия). Мужчины. Гонка преследования 12,5 км.-Автор рипа: Настольный теннисист
Качество: HDTVRip
Формат: MKV
Видео кодек: AVC
Аудио кодек: AC3
Видео: MPEG4 Video (H264) 1280x720 (16:9) 50fps 4135kbps
Аудио 1-2: Dolby AC3 48000Hz stereo 192kbps

Скриншоты

Продолжительность

00:34:11

MediaInfo

General
Unique ID : 106544258189455276259832040696280739846 (0x5027AD7F62098CFD56DA30F62A277006)
Complete name : Y:\раздачи\Осло М Преследование. Злобный.mkv
Format : Matroska
Format version : Version 2
File size : 1.10 GiB
Duration : 34 min 12 s
Overall bit rate : 4 611 kb/s
Writing application : Lavf54.63.104
Writing library : Lavf54.63.104
Video
ID : 1
Format : AVC
Format/Info : Advanced Video Codec
Format profile : High@L4.1
Format settings, CABAC : Yes
Format settings, RefFrames : 4 frames
Codec ID : V_MPEG4/ISO/AVC
Duration : 34 min 12 s
Bit rate : 4 135 kb/s
Width : 1 280 pixels
Height : 720 pixels
Display aspect ratio : 16:9
Frame rate mode : Constant
Frame rate : 50.000 FPS
Color space : YUV
Chroma subsampling : 4:2:0
Bit depth : 8 bits
Scan type : Progressive
Bits/(Pixel*Frame) : 0.090
Stream size : 1 012 MiB (90%)
Default : No
Forced : No
Color range : Limited
Color primaries : BT.709
Transfer characteristics : BT.709
Matrix coefficients : BT.709
Audio #1
ID : 2
Format : AC-3
Format/Info : Audio Coding 3
Format settings, Endianness : Big
Codec ID : A_AC3
Duration : 34 min 12 s
Bit rate mode : Constant
Bit rate : 192 kb/s
Channel(s) : 2 channels
Channel positions : Front: L R
Sampling rate : 48.0 kHz
Frame rate : 31.250 FPS (1536 SPF)
Bit depth : 16 bits
Compression mode : Lossy
Stream size : 47.0 MiB (4%)
Language : Russian
Service kind : Complete Main
Default : Yes
Forced : No
Audio #2
ID : 3
Format : AC-3
Format/Info : Audio Coding 3
Format settings, Endianness : Big
Codec ID : A_AC3
Duration : 34 min 12 s
Bit rate mode : Constant
Bit rate : 192 kb/s
Channel(s) : 2 channels
Channel positions : Front: L R
Sampling rate : 48.0 kHz
Frame rate : 31.250 FPS (1536 SPF)
Bit depth : 16 bits
Compression mode : Lossy
Stream size : 47.0 MiB (4%)
Service kind : Complete Main
Default : No
Forced : No
[cybertorrent.ru].t41844.torrent 
Торрент: Зарегистрирован [ 2018-03-19 19:00 ] · 4371209D1CA6A1CE0372BB285E46F8477014C69E

Скачать .torrent

Скачать

11 KB

Статус: проверено
Скачан: 0 раз
Размер: 1,1 GB
Профиль [ЛС]
Показать сообщения:    

Текущее время: 22-Апр 14:34

Часовой пояс: UTC ± 0



Вы не можете начинать темы
Вы не можете отвечать на сообщения
Вы не можете редактировать свои сообщения
Вы не можете удалять свои сообщения
Вы не можете голосовать в опросах
Вы не можете прикреплять файлы к сообщениям
Вы можете скачивать файлы