Статистика раздачи
Размер:  211 MB   |    Зарегистрирован:  2 месяца 3 дня   |    Скачан:  0 раз

Полного источника не было: Никогда

 
   
 
 

craft ®

Пол:
Не указан
Стаж:
3 месяца 7 дней
Сообщений:
432

Ian Gillan Band / Child In Time
Жанр: Hard Rock
Носитель: CD
Страна-производитель диска (релиза): UK
Год издания: 1989
Издатель (лейбл): Virgin
Номер по каталогу: CDVM 2606
Страна исполнителя (группы): UK
Аудиокодек: FLAC (*.flac)
Тип рипа: image+.cue
Битрейт аудио: lossless
Продолжительность: 00:35:56
Источник (релизер): barsu-1
Наличие сканов в содержимом раздачи: да
Треклист:
1.Lay Me Down
2.You Make Me Feel So Good
3.Shame
4.My Baby Loves Me
5.Down The Road
6.Child In Time
7.Let It Slide

Лог создания рипа

Exact Audio Copy V1.3 from 2. September 2016
Отчёт EAC об извлечении, выполненном 10. марта 2018, 18:37
Ian Gillan / Child in Time
Дисковод: ASUS DRW-1814BLT Adapter: 1 ID: 0
Режим чтения : Достоверность
Использование точного потока : Да
Отключение кэша аудио : Да
Использование указателей C2 : Нет
Коррекция смещения при чтении : 6
Способность читать области Lead-in и Lead-out : Нет
Заполнение пропущенных сэмплов тишиной : Да
Удаление блоков с тишиной в начале и конце : Нет
При вычислениях CRC использовались нулевые сэмплы : Да
Интерфейс : Встроенный Win32-интерфейс для Win NT/2000
Выходной формат : Пользовательский кодировщик
Выбранный битрейт : 1024 kBit/s
Качество : Высокий
Добавление ID3-тега : Нет
Утилита сжатия : C:\Program Files\Exact Audio Copy\Flac\flac.exe
Дополнительные параметры : -V -8 -T "Date=%year%" -T "Genre=%genre%" %source%
TOC извлечённого CD
Трек | Старт | Длительность | Начальный сектор | Конечный сектор
---------------------------------------------------------------------
1 | 0:00.25 | 3:00.05 | 25 | 13529
2 | 3:00.30 | 3:44.55 | 13530 | 30384
3 | 6:45.10 | 2:49.35 | 30385 | 43094
4 | 9:34.45 | 3:39.00 | 43095 | 59519
5 | 13:13.45 | 3:31.42 | 59520 | 75386
6 | 16:45.12 | 7:27.20 | 75387 | 108931
7 | 24:12.32 | 11:44.18 | 108932 | 161749
Характеристики диапазона извлечения и сообщения об ошибках
Выбранный диапазон
Имя файла E:\Торент-раздача\Ian Gillan - Child in Time.wav
Пиковый уровень 100.0 %
Скорость извлечения 2.3 X
Качество диапазона 99.9 %
CRC теста 67C0AB52
CRC копии 67C0AB52
Копирование... OK
Ошибок не произошло
AccurateRip: сводка
Трек 1 : извлечено точно (доверие 6) [A85A35B8] (AR v2)
Трек 2 : извлечено точно (доверие 6) [24D77CDE] (AR v2)
Трек 3 : извлечено точно (доверие 6) [E52CE7C2] (AR v2)
Трек 4 : извлечено точно (доверие 6) [C42DF62A] (AR v2)
Трек 5 : извлечено точно (доверие 6) [EC6DE2D0] (AR v2)
Трек 6 : извлечено точно (доверие 6) [39B15518] (AR v2)
Трек 7 : извлечено точно (доверие 6) [15EE4F56] (AR v2)
Все треки извлечены точно
Конец отчёта
---- CUETools DB Plugin V2.1.6
[CTDB TOCID: VVw6V0gANgRbrPdiFuQfL3YaKDM-] found
Submit result: VVw6V0gANgRbrPdiFuQfL3YaKDM- has been confirmed
Track | CTDB Status
1 | (12/12) Accurately ripped
2 | (12/12) Accurately ripped
3 | (12/12) Accurately ripped
4 | (12/12) Accurately ripped
5 | (12/12) Accurately ripped
6 | (12/12) Accurately ripped
7 | (12/12) Accurately ripped
==== Контрольная сумма отчёта BF5F38D3078E5B6301A150E5F1C3F9B7BD6948BDA59E55FE1A58CD734756EBB0 ====

Содержание индексной карты (.CUE)

REM DISCID 55086C07
REM COMMENT "ExactAudioCopy v1.3"
PERFORMER "Ian Gillan"
TITLE "Child in Time"
REM COMPOSER ""
FILE "Ian Gillan - Child in Time.flac" WAVE
TRACK 01 AUDIO
TITLE "Lay me Down"
PERFORMER "Ian Gillan"
REM COMPOSER ""
INDEX 00 00:00:00
INDEX 01 00:00:25
TRACK 02 AUDIO
TITLE "You Make me Feel So Good"
PERFORMER "Ian Gillan"
REM COMPOSER ""
INDEX 00 02:59:00
INDEX 01 03:00:30
TRACK 03 AUDIO
TITLE "Shame"
PERFORMER "Ian Gillan"
REM COMPOSER ""
INDEX 00 06:44:22
INDEX 01 06:45:10
TRACK 04 AUDIO
TITLE "My baby Loves me"
PERFORMER "Ian Gillan"
REM COMPOSER ""
INDEX 00 09:33:52
INDEX 01 09:34:45
TRACK 05 AUDIO
TITLE "Down the Road"
PERFORMER "Ian Gillan"
REM COMPOSER ""
INDEX 00 13:10:67
INDEX 01 13:13:45
TRACK 06 AUDIO
TITLE "Child in Time"
PERFORMER "Ian Gillan"
REM COMPOSER ""
INDEX 00 16:39:35
INDEX 01 16:45:12
TRACK 07 AUDIO
TITLE "Let it Slide"
PERFORMER "Ian Gillan"
REM COMPOSER ""
INDEX 00 24:10:65
INDEX 01 24:12:32
[cybertorrent.ru].t41848.torrent 
Торрент: Зарегистрирован [ 2018-03-19 19:00 ] · 01EC6FA0641AB44485015B5DD0C39644214BF319

Скачать .torrent

Скачать

17 KB

Статус: проверено
Скачан: 0 раз
Размер: 211 MB
Профиль [ЛС]
Показать сообщения:    

Текущее время: 22-Май 23:28

Часовой пояс: UTC ± 0



Вы не можете начинать темы
Вы не можете отвечать на сообщения
Вы не можете редактировать свои сообщения
Вы не можете удалять свои сообщения
Вы не можете голосовать в опросах
Вы не можете прикреплять файлы к сообщениям
Вы можете скачивать файлы