Статистика раздачи
Размер:  403 MB   |    Зарегистрирован:  1 месяц 4 дня   |    Скачан:  0 раз

Полного источника не было: Никогда

 
   
 
 

torrents.pl ®

Пол:
Не указан
Стаж:
2 месяца 9 дней
Сообщений:
93

Aeonblack / Metal Bound
Жанр: Heavy/Power Metal
Носитель: CD
Страна-производитель диска (релиза): Germany
Год издания: 2015
Издатель (лейбл): Not On Label (Aeonblack Self-released)
Номер по каталогу: HOA271242
Страна исполнителя (группы): Germany
Аудиокодек: WavPack (*.wv)
Тип рипа: image+.cue
Битрейт аудио: lossless
Продолжительность: 51:24
Источник (релизер): интернет
Наличие сканов в содержимом раздачи: да
Треклист:
01. New Reality
02. Metal Bound
03. Coming Home
04. Last Breath
05. No One Knows
06. World Of Fools
07. This Is
08. Awake
09. Where Is God?
10. Dangerous

Лог создания рипа

Exact Audio Copy V1.0 beta 3 from 29. August 2011
EAC extraction logfile from 14. February 2015, 21:11
Aeonblack / Metal Bound
Used drive : Optiarc DVD RW AD-7260S Adapter: 4 ID: 0
Read mode : Secure
Utilize accurate stream : Yes
Defeat audio cache : Yes
Make use of C2 pointers : No
Read offset correction : 48
Overread into Lead-In and Lead-Out : No
Fill up missing offset samples with silence : Yes
Delete leading and trailing silent blocks : No
Null samples used in CRC calculations : Yes
Used interface : Native Win32 interface for Win NT & 2000
Used output format : User Defined Encoder
Selected bitrate : 1024 kBit/s
Quality : High
Add ID3 tag : No
Command line compressor : D:\Program Files\Exact Audio Copy\WavPack\wavpack.exe
Additional command line options : -hhx6 -w "Artist=%artist%" -w "Album=%albumtitle%" -w "Year=%year%" -w "Genre=%genre%" -w "Cuesheet=@*.cue" %source% %dest%
TOC of the extracted CD
Track | Start | Length | Start sector | End sector
---------------------------------------------------------
1 | 0:00.00 | 5:04.48 | 0 | 22847
2 | 5:04.48 | 5:29.54 | 22848 | 47576
3 | 10:34.27 | 5:12.45 | 47577 | 71021
4 | 15:46.72 | 3:42.37 | 71022 | 87708
5 | 19:29.34 | 7:26.32 | 87709 | 121190
6 | 26:55.66 | 3:21.31 | 121191 | 136296
7 | 30:17.22 | 4:44.66 | 136297 | 157662
8 | 35:02.13 | 3:59.21 | 157663 | 175608
9 | 39:01.34 | 8:30.56 | 175609 | 213914
10 | 47:32.15 | 3:51.72 | 213915 | 231311
Range status and errors
Selected range
Filename H:\AEONBLACK [2014] [CD] Metal Bound [EAC-WV]\Aeonblack - Metal Bound.wav
Peak level 99.3 %
Extraction speed 3.5 X
Range quality 100.0 %
Test CRC F0E790C3
Copy CRC F0E790C3
Copy OK
No errors occurred
AccurateRip summary
Track 1 not present in database
Track 2 not present in database
Track 3 not present in database
Track 4 not present in database
Track 5 not present in database
Track 6 not present in database
Track 7 not present in database
Track 8 not present in database
Track 9 not present in database
Track 10 not present in database
None of the tracks are present in the AccurateRip database
End of status report
---- CUETools DB Plugin V2.1.3
[CTDB TOCID: nHtt8U4G1bawAS2G2S6OmRNI9cQ-] disk not present in database, Submit result: nHtt8U4G1bawAS2G2S6OmRNI9cQ- has been uploaded
==== Log checksum 9D2901E85EC1DC5A2DC67A08F840D41207631CA67D86406908F9EB92F4C76BA2 ====

Содержание индексной карты (.CUE)

REM GENRE "Heavy Metal"
REM DATE 2014
REM DISCID 810C0C0A
REM COMMENT "ExactAudioCopy v1.0b3"
PERFORMER "Aeonblack"
TITLE "Metal Bound"
FILE "Aeonblack - Metal Bound.wv" WAVE
TRACK 01 AUDIO
TITLE "New Reality"
PERFORMER "Aeonblack"
INDEX 01 00:00:00
TRACK 02 AUDIO
TITLE "Metal Bound"
PERFORMER "Aeonblack"
INDEX 01 05:04:48
TRACK 03 AUDIO
TITLE "Coming Home"
PERFORMER "Aeonblack"
INDEX 01 10:34:27
TRACK 04 AUDIO
TITLE "Last Breath"
PERFORMER "Aeonblack"
INDEX 01 15:46:72
TRACK 05 AUDIO
TITLE "No One Knows"
PERFORMER "Aeonblack"
INDEX 01 19:29:34
TRACK 06 AUDIO
TITLE "World Of Fools"
PERFORMER "Aeonblack"
INDEX 01 26:55:66
TRACK 07 AUDIO
TITLE "This Is"
PERFORMER "Aeonblack"
INDEX 01 30:17:22
TRACK 08 AUDIO
TITLE "Awake"
PERFORMER "Aeonblack"
INDEX 01 35:02:13
TRACK 09 AUDIO
TITLE "Where Is God?"
PERFORMER "Aeonblack"
INDEX 01 39:01:34
TRACK 10 AUDIO
TITLE "Dangerous"
PERFORMER "Aeonblack"
INDEX 01 47:32:15
[cybertorrent.ru].t41849.torrent 
Торрент: Зарегистрирован [ 2018-03-19 19:00 ] · 58091E23B12BEBB917BD9ADE320EB7E6B797278C

Скачать .torrent

Скачать

17 KB

Статус: проверено
Скачан: 0 раз
Размер: 403 MB
Профиль [ЛС]
Показать сообщения:    

Текущее время: 24-Апр 18:21

Часовой пояс: UTC ± 0



Вы не можете начинать темы
Вы не можете отвечать на сообщения
Вы не можете редактировать свои сообщения
Вы не можете удалять свои сообщения
Вы не можете голосовать в опросах
Вы не можете прикреплять файлы к сообщениям
Вы можете скачивать файлы