Статистика раздачи
Размер:  801 MB   |    Зарегистрирован:  2 месяца 3 дня   |    Скачан:  0 раз

Полного источника не было: Никогда

 
   
 
 

craft ®

Пол:
Не указан
Стаж:
3 месяца 8 дней
Сообщений:
432

Marc Bolan & T.Rex / Spaceball (The American Radio Sessions)
Жанр: Glam Rock, Rock
Носитель: CD
Страна-производитель диска (релиза): UK
Год издания: 2009
Издатель (лейбл): Applebush Records
Номер по каталогу: CPSSPCD005
Аудиокодек: FLAC (*.flac)
Тип рипа: image+.cue
Битрейт аудио: lossless
Продолжительность: 02:17:04
Источник (релизер): London
Наличие сканов в содержимом раздачи: да

CD1

01. Spaceball Ricochet
02. Jeepster
03. Cosmic Dancer
04. Mainman
05. Ballrooms of Mars
06. Mystic Lady
07. Girl
08. Baby Strange
09. KLOS Jingle #1
10. Interview
11. Spaceball Ricochet
12. Interview
13. Left Hand Luke
14. Interview
15. The Slider
16. Interview
Tracks 1-8 K.Day Radio Los Angeles . 15th February 1972
Tracks 10-16 WBCN Radio. Boston, 11th September 1972

Лог создания рипа

Exact Audio Copy V1.3 from 2. September 2016
EAC extraction logfile from 11. March 2018, 9:10
T.Rex / Spaceball (The American Radio Sessions) CD1
Used drive : ATAPI iHAS122 C Adapter: 1 ID: 0
Read mode : Secure
Utilize accurate stream : Yes
Defeat audio cache : Yes
Make use of C2 pointers : No
Read offset correction : 6
Overread into Lead-In and Lead-Out : No
Fill up missing offset samples with silence : Yes
Delete leading and trailing silent blocks : No
Null samples used in CRC calculations : Yes
Used interface : Native Win32 interface for Win NT & 2000
Used output format : Internal WAV Routines
Sample format : 44.100 Hz; 16 Bit; Stereo
TOC of the extracted CD
Track | Start | Length | Start sector | End sector
---------------------------------------------------------
1 | 0:00.00 | 5:07.38 | 0 | 23062
2 | 5:07.38 | 5:05.64 | 23063 | 46001
3 | 10:13.27 | 7:52.69 | 46002 | 81470
4 | 18:06.21 | 6:22.25 | 81471 | 110145
5 | 24:28.46 | 3:47.00 | 110146 | 127170
6 | 28:15.46 | 3:18.23 | 127171 | 142043
7 | 31:33.69 | 2:55.32 | 142044 | 155200
8 | 34:29.26 | 3:00.08 | 155201 | 168708
9 | 37:29.34 | 0:32.74 | 168709 | 171182
10 | 38:02.33 | 0:50.13 | 171183 | 174945
11 | 38:52.46 | 4:42.18 | 174946 | 196113
12 | 43:34.64 | 4:24.52 | 196114 | 215965
13 | 47:59.41 | 3:31.43 | 215966 | 231833
14 | 51:31.09 | 2:19.30 | 231834 | 242288
15 | 53:50.39 | 3:54.52 | 242289 | 259890
16 | 57:45.16 | 0:48.40 | 259891 | 263530
Range status and errors
Selected range
Filename C:\Users\London\Desktop\T.Rex - Spaceball (The American Radio Sessions) CD1.wav
Peak level 100.0 %
Extraction speed 8.4 X
Range quality 100.0 %
Test CRC 46E2593C
Copy CRC 46E2593C
Copy OK
No errors occurred
AccurateRip summary
Track 1 cannot be verified as accurate (confidence 3) [EF0A4150], AccurateRip returned [43886A46] (AR v2)
Track 2 cannot be verified as accurate (confidence 3) [486FF536], AccurateRip returned [99002C3F] (AR v2)
Track 3 cannot be verified as accurate (confidence 3) [2B6CE7E5], AccurateRip returned [60D8310D] (AR v2)
Track 4 cannot be verified as accurate (confidence 3) [C888352C], AccurateRip returned [9FE2DB81] (AR v2)
Track 5 cannot be verified as accurate (confidence 3) [DDBEE439], AccurateRip returned [CB60E32C] (AR v2)
Track 6 cannot be verified as accurate (confidence 3) [6A0B5D6E], AccurateRip returned [CDD2FC91] (AR v2)
Track 7 cannot be verified as accurate (confidence 3) [357C9E44], AccurateRip returned [BA16DB43] (AR v2)
Track 8 cannot be verified as accurate (confidence 3) [F9634DC9], AccurateRip returned [336D5BEC] (AR v2)
Track 9 cannot be verified as accurate (confidence 3) [2CAB4958], AccurateRip returned [6FC7687A] (AR v2)
Track 10 cannot be verified as accurate (confidence 3) [068D309B], AccurateRip returned [91F50DD2] (AR v2)
Track 11 cannot be verified as accurate (confidence 3) [3C451691], AccurateRip returned [63DC6807] (AR v2)
Track 12 cannot be verified as accurate (confidence 3) [2A8B1D83], AccurateRip returned [5C7287FC] (AR v2)
Track 13 cannot be verified as accurate (confidence 3) [70780527], AccurateRip returned [6E54781C] (AR v2)
Track 14 cannot be verified as accurate (confidence 3) [3C363867], AccurateRip returned [3CF183D0] (AR v2)
Track 15 cannot be verified as accurate (confidence 3) [E3BBB05B], AccurateRip returned [3E638BF8] (AR v2)
Track 16 cannot be verified as accurate (confidence 3) [2287F62E], AccurateRip returned [0BE5C33A] (AR v2)
No tracks could be verified as accurate
You may have a different pressing from the one(s) in the database
End of status report
---- CUETools DB Plugin V2.1.6
[CTDB TOCID: ccUm0voTEkO898bIs7KEO4FOdmQ-] found
Submit result: ccUm0voTEkO898bIs7KEO4FOdmQ- has been confirmed
Track | CTDB Status
1 | (2/2) Accurately ripped
2 | (2/2) Accurately ripped
3 | (2/2) Accurately ripped
4 | (2/2) Accurately ripped
5 | (2/2) Accurately ripped
6 | (2/2) Accurately ripped
7 | (2/2) Accurately ripped
8 | (2/2) Accurately ripped
9 | (2/2) Accurately ripped
10 | (2/2) Accurately ripped
11 | (2/2) Accurately ripped
12 | (2/2) Accurately ripped
13 | (2/2) Accurately ripped
14 | (2/2) Accurately ripped
15 | (2/2) Accurately ripped
16 | (2/2) Accurately ripped
==== Log checksum 3225142426763E9540A5F1A48935E56D8C5FD8448F952300FD784DA2BDCAFAFC ====

Содержание индексной карты (.CUE)

REM GENRE Rock
REM DATE 1997
REM DISCID E40DB910
REM COMMENT ExactAudioCopy v1.3
PERFORMER "T.Rex"
TITLE "Spaceball (The American Radio Sessions) CD1"
FILE "T.Rex - Spaceball (The American Radio Sessions) CD1.flac" WAVE
TRACK 01 AUDIO
TITLE "Spaceball Ricochet"
PERFORMER "_"
INDEX 01 00:00:00
TRACK 02 AUDIO
TITLE "Jeepster"
PERFORMER "_"
INDEX 01 05:07:38
TRACK 03 AUDIO
TITLE "Cosmic Dancer"
PERFORMER "_"
INDEX 01 10:13:27
TRACK 04 AUDIO
TITLE "Mainman"
PERFORMER "_"
INDEX 01 18:06:21
TRACK 05 AUDIO
TITLE "Ballrooms Of Mars"
PERFORMER "_"
INDEX 01 24:28:46
TRACK 06 AUDIO
TITLE "Mystic Lady"
PERFORMER "_"
INDEX 01 28:15:46
TRACK 07 AUDIO
TITLE "Girl"
PERFORMER "_"
INDEX 01 31:33:69
TRACK 08 AUDIO
TITLE "Baby Strange"
PERFORMER "_"
INDEX 01 34:29:26
TRACK 09 AUDIO
TITLE "KLOS Jingle #1"
PERFORMER "_"
INDEX 01 37:29:34
TRACK 10 AUDIO
TITLE "Interview"
PERFORMER "_"
INDEX 01 38:02:33
TRACK 11 AUDIO
TITLE "Spaceball Ricochet"
PERFORMER "_"
INDEX 01 38:52:46
TRACK 12 AUDIO
TITLE "Interview"
PERFORMER "_"
INDEX 01 43:34:64
TRACK 13 AUDIO
TITLE "Left Hand Luke"
PERFORMER "_"
INDEX 01 47:59:41
TRACK 14 AUDIO
TITLE "Interview"
PERFORMER "_"
INDEX 01 51:31:09
TRACK 15 AUDIO
TITLE "The Slider"
PERFORMER "_"
INDEX 01 53:50:39
TRACK 16 AUDIO
TITLE "Interview"
PERFORMER "_"
INDEX 01 57:45:16

DR Log

foobar2000 1.3.13 / Dynamic Range Meter 1.1.1
log date: 2018-03-11 09:14:46
--------------------------------------------------------------------------------
Analyzed: / Spaceball (The American Radio Sessions) CD1
--------------------------------------------------------------------------------
DR Peak RMS Duration Track
--------------------------------------------------------------------------------
DR10 -0.20 dB -12.20 dB 5:08 01-Spaceball Ricochet
DR10 -0.20 dB -12.40 dB 5:06 02-Jeepster
DR10 -0.20 dB -11.11 dB 7:53 03-Cosmic Dancer
DR10 -0.20 dB -11.77 dB 6:22 04-Mainman
DR10 -0.20 dB -11.67 dB 3:47 05-Ballrooms Of Mars
DR10 0.00 dB -11.37 dB 3:18 06-Mystic Lady
DR9 -0.20 dB -11.24 dB 2:55 07-Girl
DR10 -0.20 dB -12.26 dB 3:00 08-Baby Strange
DR7 -0.20 dB -10.50 dB 0:33 09-KLOS Jingle #1
DR7 -0.20 dB -9.82 dB 0:50 10-Interview
DR5 -0.20 dB -6.97 dB 4:42 11-Spaceball Ricochet
DR6 -4.20 dB -13.15 dB 4:25 12-Interview
DR4 -1.70 dB -7.92 dB 3:32 13-Left Hand Luke
DR5 -0.20 dB -8.44 dB 2:19 14-Interview
DR4 -1.70 dB -6.83 dB 3:55 15-The Slider
DR5 -0.20 dB -7.91 dB 0:49 16-Interview
--------------------------------------------------------------------------------
Number of tracks: 16
Official DR value: DR8
Samplerate: 44100 Hz
Channels: 2
Bits per sample: 16
Bitrate: 787 kbps
Codec: FLAC
================================================================================

CD2

01. Reprise Records Advert ‘T.Rex’ album #1
02. Interview
03. Cosmic Dancer
04. Planet Queen
05. Elemental Child
06. Jewel
07. Hot Love
08. KLOS Jingle #2
09. Cosmic Dancer
10. Honey Don’t
11. Planet Queen
12. Get It On Blues
13. WGLD Radio Jingle
14. Life’s A Gas
15. Spaceball Ricochet
16. Sunken Rags
17. Everybody’s Loose / Talking
18. Reprise Records Advert ‘T.Rex’ album #2
Tracks 2-7 WBAI Radio New York, 8th April 1971
Tracks 9-12 WPLJ Radio, New York. 15th April 1971
Tracks 13-17 WGLD Radio, Chicago 11th December 1971

Лог создания рипа

Exact Audio Copy V1.3 from 2. September 2016
EAC extraction logfile from 11. March 2018, 10:04
T.Rex / Spaceball (The American Radio Sessions) CD1
Used drive : ATAPI iHAS122 C Adapter: 1 ID: 0
Read mode : Secure
Utilize accurate stream : Yes
Defeat audio cache : Yes
Make use of C2 pointers : No
Read offset correction : 6
Overread into Lead-In and Lead-Out : No
Fill up missing offset samples with silence : Yes
Delete leading and trailing silent blocks : No
Null samples used in CRC calculations : Yes
Used interface : Native Win32 interface for Win NT & 2000
Used output format : Internal WAV Routines
Sample format : 44.100 Hz; 16 Bit; Stereo
TOC of the extracted CD
Track | Start | Length | Start sector | End sector
---------------------------------------------------------
1 | 0:00.00 | 1:05.31 | 0 | 4905
2 | 1:05.31 | 4:30.47 | 4906 | 25202
3 | 5:36.03 | 3:43.45 | 25203 | 41972
4 | 9:19.48 | 3:37.38 | 41973 | 58285
5 | 12:57.11 | 8:56.46 | 58286 | 98531
6 | 21:53.57 | 12:21.31 | 98532 | 154137
7 | 34:15.13 | 3:42.16 | 154138 | 170803
8 | 37:57.29 | 0:37.65 | 170804 | 173643
9 | 38:35.19 | 7:10.59 | 173644 | 205952
10 | 45:46.03 | 4:46.60 | 205953 | 227462
11 | 50:32.63 | 3:54.23 | 227463 | 245035
12 | 54:27.11 | 7:04.70 | 245036 | 276905
13 | 61:32.06 | 0:33.73 | 276906 | 279453
14 | 62:06.04 | 3:22.13 | 279454 | 294616
15 | 65:28.17 | 3:47.65 | 294617 | 311706
16 | 69:16.07 | 4:39.15 | 311707 | 332646
17 | 73:55.22 | 3:31.58 | 332647 | 348529
18 | 77:27.05 | 1:02.60 | 348530 | 353239
Range status and errors
Selected range
Filename C:\Users\London\Desktop\T.Rex - Spaceball (The American Radio Sessions) CD1.wav
Peak level 100.0 %
Extraction speed 7.0 X
Range quality 99.9 %
Test CRC 95CE22CC
Copy CRC 95CE22CC
Copy OK
No errors occurred
AccurateRip summary
Track 1 cannot be verified as accurate (confidence 2) [AF769360], AccurateRip returned [73806D7C] (AR v2)
Track 2 cannot be verified as accurate (confidence 2) [19AA3DFC], AccurateRip returned [E7444130] (AR v2)
Track 3 cannot be verified as accurate (confidence 2) [6CA25184], AccurateRip returned [348F4DBD] (AR v2)
Track 4 cannot be verified as accurate (confidence 2) [E7E225D6], AccurateRip returned [847E3772] (AR v2)
Track 5 cannot be verified as accurate (confidence 2) [DD1E12BE], AccurateRip returned [3DAC702F] (AR v2)
Track 6 cannot be verified as accurate (confidence 2) [1261E092], AccurateRip returned [3AA43C0F] (AR v2)
Track 7 cannot be verified as accurate (confidence 2) [81F922FC], AccurateRip returned [C03BB26C] (AR v2)
Track 8 cannot be verified as accurate (confidence 2) [9BE09555], AccurateRip returned [1AB96F24] (AR v2)
Track 9 cannot be verified as accurate (confidence 2) [6BCB0431], AccurateRip returned [3058AAF1] (AR v2)
Track 10 cannot be verified as accurate (confidence 2) [9E73B319], AccurateRip returned [DDB0C31A] (AR v2)
Track 11 cannot be verified as accurate (confidence 2) [E8C13374], AccurateRip returned [4E8C288D] (AR v2)
Track 12 cannot be verified as accurate (confidence 2) [8A334509], AccurateRip returned [152FF5B4] (AR v2)
Track 13 cannot be verified as accurate (confidence 2) [E20D75DE], AccurateRip returned [B0EC4C77] (AR v2)
Track 14 cannot be verified as accurate (confidence 2) [B41F674B], AccurateRip returned [F11275F7] (AR v2)
Track 15 cannot be verified as accurate (confidence 2) [D9D0C1D0], AccurateRip returned [7DD648E6] (AR v2)
Track 16 cannot be verified as accurate (confidence 2) [15F7EFDD], AccurateRip returned [A73B21C4] (AR v2)
Track 17 cannot be verified as accurate (confidence 2) [D204F1FF], AccurateRip returned [6551D2CE] (AR v2)
Track 18 cannot be verified as accurate (confidence 2) [4AA7648A], AccurateRip returned [A37948A8] (AR v2)
No tracks could be verified as accurate
You may have a different pressing from the one(s) in the database
End of status report
---- CUETools DB Plugin V2.1.6
[CTDB TOCID: 6WjE2YpoXjJxp6u0t3BUAK8udWE-] found
Submit result: 6WjE2YpoXjJxp6u0t3BUAK8udWE- has been confirmed
Track | CTDB Status
1 | (1/1) Accurately ripped
2 | (1/1) Accurately ripped
3 | (1/1) Accurately ripped
4 | (1/1) Accurately ripped
5 | (1/1) Accurately ripped
6 | (1/1) Accurately ripped
7 | (1/1) Accurately ripped
8 | (1/1) Accurately ripped
9 | (1/1) Accurately ripped
10 | (1/1) Accurately ripped
11 | (1/1) Accurately ripped
12 | (1/1) Accurately ripped
13 | (1/1) Accurately ripped
14 | (1/1) Accurately ripped
15 | (1/1) Accurately ripped
16 | (1/1) Accurately ripped
17 | (1/1) Accurately ripped
18 | (1/1) Accurately ripped
==== Log checksum C9397836E68EBE1886B0B466838A073C5C09A6FEC6E6378212D518A3882E9307 ====

Содержание индексной карты (.CUE)

REM GENRE Rock
REM DATE 1997
REM DISCID 21126512
REM COMMENT ExactAudioCopy v1.3
PERFORMER "T.Rex "
TITLE "Spaceball (The American Radio Sessions) CD1"
FILE "T.Rex - Spaceball (The American Radio Sessions) CD2.flac" WAVE
TRACK 01 AUDIO
TITLE "Reprise Records Advert 'T.Rex' album #1"
PERFORMER "_"
INDEX 01 00:00:00
TRACK 02 AUDIO
TITLE "Interview"
PERFORMER "_"
INDEX 01 01:05:31
TRACK 03 AUDIO
TITLE "Cosmic Dancer"
PERFORMER "_"
INDEX 01 05:36:03
TRACK 04 AUDIO
TITLE "Planet Queen"
PERFORMER "_"
INDEX 01 09:19:48
TRACK 05 AUDIO
TITLE "Elemental Child"
PERFORMER "_"
INDEX 01 12:57:11
TRACK 06 AUDIO
TITLE "Jewel"
PERFORMER "_"
INDEX 01 21:53:57
TRACK 07 AUDIO
TITLE "Hot Love"
PERFORMER "_"
INDEX 01 34:15:13
TRACK 08 AUDIO
TITLE "KLOS Jingle #2"
PERFORMER "_"
INDEX 01 37:57:29
TRACK 09 AUDIO
TITLE "Cosmic Dancer"
PERFORMER "_"
INDEX 01 38:35:19
TRACK 10 AUDIO
TITLE "Honey Don't"
PERFORMER "_"
INDEX 01 45:46:03
TRACK 11 AUDIO
TITLE "Planet Queen"
PERFORMER "_"
INDEX 01 50:32:63
TRACK 12 AUDIO
TITLE "Get It On Blues"
PERFORMER "_"
INDEX 01 54:27:11
TRACK 13 AUDIO
TITLE "WGLD Radio Jingle"
PERFORMER "_"
INDEX 01 61:32:06
TRACK 14 AUDIO
TITLE "Life's A Gas"
PERFORMER "_"
INDEX 01 62:06:04
TRACK 15 AUDIO
TITLE "Spaceball Ricochet"
PERFORMER "_"
INDEX 01 65:28:17
TRACK 16 AUDIO
TITLE "Sunken Rags"
PERFORMER "_"
INDEX 01 69:16:07
TRACK 17 AUDIO
TITLE "Everybody's Loose (Mainman) / Talking"
PERFORMER "_"
INDEX 01 73:55:22
TRACK 18 AUDIO
TITLE "Reprise Records Advert 'T.Rex' album #2"
PERFORMER "_"
INDEX 01 77:27:05

DR Log

foobar2000 1.3.13 / Dynamic Range Meter 1.1.1
log date: 2018-03-17 10:41:59
--------------------------------------------------------------------------------
Analyzed: / Spaceball (The American Radio Sessions) CD1
--------------------------------------------------------------------------------
DR Peak RMS Duration Track
--------------------------------------------------------------------------------
DR10 -0.20 dB -13.40 dB 1:05 01-Reprise Records Advert 'T.Rex' album #1
DR11 0.00 dB -13.87 dB 4:31 02-Interview
DR5 -1.20 dB -7.43 dB 3:44 03-Cosmic Dancer
DR5 -0.70 dB -6.90 dB 3:38 04-Planet Queen
DR5 -1.20 dB -7.96 dB 8:57 05-Elemental Child
DR5 -1.20 dB -8.20 dB 12:21 06-Jewel
DR5 -0.70 dB -7.65 dB 3:42 07-Hot Love
DR11 -0.20 dB -13.98 dB 0:38 08-KLOS Jingle #2
DR8 -0.20 dB -10.67 dB 7:11 09-Cosmic Dancer
DR8 -0.20 dB -9.99 dB 4:47 10-Honey Don't
DR8 -0.20 dB -9.47 dB 3:54 11-Planet Queen
DR8 -0.20 dB -10.10 dB 7:05 12-Get It On Blues
DR10 -0.70 dB -14.19 dB 0:34 13-WGLD Radio Jingle
DR6 -0.20 dB -9.85 dB 3:22 14-Life's A Gas
DR7 -0.20 dB -9.90 dB 3:48 15-Spaceball Ricochet
DR7 -0.20 dB -9.91 dB 4:39 16-Sunken Rags
DR9 -0.20 dB -11.13 dB 3:32 17-Everybody's Loose (Mainman) / Talking
DR7 -0.20 dB -10.15 dB 1:03 18-Reprise Records Advert 'T.Rex' album #2
--------------------------------------------------------------------------------
Number of tracks: 18
Official DR value: DR8
Samplerate: 44100 Hz
Channels: 2
Bits per sample: 16
Bitrate: 755 kbps
Codec: FLAC
================================================================================
-Раздаю до первых 5-ти скачавших, на раздачи не возвращаюсь...-
[cybertorrent.ru].t41850.torrent 
Торрент: Зарегистрирован [ 2018-03-19 19:00 ] · 633D2560BEC32A5DB7AC8346C0CB058F5D2BA313

Скачать .torrent

Скачать

17 KB

Статус: проверено
Скачан: 0 раз
Размер: 801 MB
Профиль [ЛС]
Показать сообщения:    

Текущее время: 23-Май 18:29

Часовой пояс: UTC ± 0



Вы не можете начинать темы
Вы не можете отвечать на сообщения
Вы не можете редактировать свои сообщения
Вы не можете удалять свои сообщения
Вы не можете голосовать в опросах
Вы не можете прикреплять файлы к сообщениям
Вы можете скачивать файлы